Fast Download Mirrors

Maid (2021) • TV Mini Series | 1080p.NF.WEBRip.DDP5.1.x264-AGLET

Maid (2021) • TV Mini Series
Maid Comedy, Drama | October 1, 2021 (United States) Summary: After fleeing an abusive relationship, a young mother finds a job cleaning houses as she fights to provide for her child and build them a better future.
Countries: United StatesLanguages: English

After fleeing an abusive relationship, a young mother finds a job cleaning houses as she fights to provide for her child and build them a better future.

Mirrors: Gdrive Index, MultiUp, Gdrive[GDTOT, Sharer]
Format: MKV
Credits: AGLET

Download

Maid.S01E01.Dollar.Store.1080p.NF.WEB-DL.DDP5.1.x264-AGLET.mkv - 1.4 GB
Maid.S01E02.Ponies.1080p.NF.WEB-DL.DDP5.1.x264-AGLET.mkv - 1.49 GB
Maid.S01E03.Sea.Glass.1080p.NF.WEB-DL.DDP5.1.x264-AGLET.mkv - 1.5 GB
Maid.S01E04.Cashmere.1080p.NF.WEB-DL.DDP5.1.x264-AGLET.mkv - 2.38 GB
Maid.S01E05.Thief.1080p.NF.WEB-DL.DDP5.1.x264-AGLET.mkv - 1.53 GB
Maid.S01E06.M.1080p.NF.WEB-DL.DDP5.1.x264-AGLET.mkv - 1.7 GB
Maid.S01E07.String.Cheese.1080p.NF.WEB-DL.DDP5.1.x264-AGLET.mkv - 1.42 GB
Maid.S01E08.Bear.Hunt.1080p.NF.WEB-DL.DDP5.1.x264-AGLET.mkv - 1.86 GB
Maid.S01E09.Sky.Blue.1080p.NF.WEB-DL.DDP5.1.x264-AGLET.mkv - 2.97 GB
Maid.S01E10.Snaps.1080p.NF.WEB-DL.DDP5.1.x264-AGLET.mkv - 2.77 GB

[Single Folder]
https://official12.the-ambassador1.workers.dev/0:/Maid.S01/

[Single Episodes]

https://multiup.org/1101e5d42e93a5feedf0330fb9585232
https://multiup.org/037e0b77124bcb8fbdb1dab3dfd7e3cb
https://multiup.org/7312aff190ceb5b6f05eda4f8280ac5d
https://multiup.org/12d2886bae06b50e0e25ccff5c066ac2
https://multiup.org/97b18c63581e2aea39debf4b7c0585f4
https://multiup.org/b4410be1520d68ed8fd549a58c14595c
https://multiup.org/4cc7da45f08f6bf9596cfc0d4389af81
https://multiup.org/9c4618c38baddeca8d9e4927d35bb6bc
https://multiup.org/6ebbf815778a7b105aa7618c35e7ec04
https://multiup.org/95e252f455a26ef7ea938e4b0440766c

https://sharer.pw/file/ZgLQdDaAzlEz
https://sharer.pw/file/vQjci-AqPI8L
https://sharer.pw/file/qy9C-7Mb31Nt
https://sharer.pw/file/s-c3JqHTJaUL
https://sharer.pw/file/8RQLQEzgUmuw
https://sharer.pw/file/Yj-OZEQxT9PN
https://sharer.pw/file/SDoubVNNHl6f
https://sharer.pw/file/RI0i-wrXS5hG
https://sharer.pw/file/C77GMV6e7QuM
https://sharer.pw/file/BykJNUp81tbG

https://new.gdtot.me/file/1500594517
https://new.gdtot.me/file/1597635313
https://new.gdtot.me/file/1605732724
https://new.gdtot.me/file/2558703081
https://new.gdtot.me/file/1643789594
https://new.gdtot.me/file/1821218964
https://new.gdtot.me/file/1527866553
https://new.gdtot.me/file/2000479247
https://new.gdtot.me/file/3184089913
https://new.gdtot.me/file/2972264928
Video
ID : 1
Format : AVC
Format/Info : Advanced Video Codec
Format profile : High@L4
Format settings : CABAC / 4 Ref Frames
Format settings, CABAC : Yes
Format settings, Reference frames : 4 frames
Codec ID : V_MPEG4/ISO/AVC
Duration : 1 h 0 min
Bit rate mode : Variable
Bit rate : 6 388 kb/s
Maximum bit rate : 20.0 Mb/s
Width : 1 920 pixels
Height : 1 080 pixels
Display aspect ratio : 16:9
Frame rate mode : Constant
Frame rate : 23.976 (24000/1001) FPS
Color space : YUV
Chroma subsampling : 4:2:0
Bit depth : 8 bits
Scan type : Progressive
Bits/(Pixel*Frame) : 0.128
Stream size : 2.69 GiB (91%)
Writing library : x264 core 148 r2722 1b0121b
Encoding settings : cabac=1 / ref=4 / deblock=1:0:0 / analyse=0x3:0x111 / me=umh / subme=10 / psy=1 / psy_rd=1.00:0.00 / mixed_ref=1 / me_range=120 / chroma_me=1 / trellis=2 / 8x8dct=1 / cqm=0 / deadzone=21,11 / fast_pskip=1 / chroma_qp_offset=-2 / threads=8 / lookahead_threads=2 / sliced_threads=0 / nr=0 / decimate=1 / interlaced=0 / bluray_compat=0 / stitchable=1 / constrained_intra=0 / bframes=16 / b_pyramid=2 / b_adapt=2 / b_bias=0 / direct=3 / weightb=1 / open_gop=0 / weightp=2 / keyint=240 / keyint_min=121 / scenecut=0 / intra_refresh=0 / rc_lookahead=240 / rc=crf / mbtree=1 / crf=16.0 / qcomp=0.50 / qpmin=6 / qpmax=51 / qpstep=4 / vbv_maxrate=20000 / vbv_bufsize=25000 / crf_max=0.0 / nal_hrd=vbr / filler=0 / ip_ratio=1.40 / aq=1:0.80
Language : English
Default : Yes
Forced : No

Audio
ID : 2
Format : E-AC-3
Format/Info : Enhanced AC-3
Commercial name : Dolby Digital Plus
Codec ID : A_EAC3
Duration : 1 h 0 min
Bit rate mode : Constant
Bit rate : 640 kb/s
Channel(s) : 6 channels
Channel layout : L R C LFE Ls Rs
Sampling rate : 48.0 kHz
Frame rate : 31.250 FPS (1536 SPF)
Compression mode : Lossy
Stream size : 276 MiB (9%)
Language : English
Service kind : Complete Main
Default : Yes
Forced : No

Text #1
ID : 3
Format : UTF-8
Codec ID : S_TEXT/UTF8
Codec ID/Info : UTF-8 Plain Text
Duration : 55 min 44 s
Bit rate : 51 b/s
Count of elements : 617
Stream size : 21.0 KiB (0%)
Language : English
Default : No
Forced : No

Text #2
ID : 4
Format : UTF-8
Codec ID : S_TEXT/UTF8
Codec ID/Info : UTF-8 Plain Text
Duration : 57 min 48 s
Bit rate : 60 b/s
Count of elements : 772
Stream size : 25.5 KiB (0%)
Title : SDH
Language : English
Default : No
Forced : No

Text #3
ID : 5
Format : UTF-8
Codec ID : S_TEXT/UTF8
Codec ID/Info : UTF-8 Plain Text
Duration : 58 min 21 s
Bit rate : 89 b/s
Count of elements : 635
Stream size : 38.1 KiB (0%)
Language : Arabic
Default : No
Forced : No

Text #4
ID : 6
Format : UTF-8
Codec ID : S_TEXT/UTF8
Codec ID/Info : UTF-8 Plain Text
Duration : 58 min 21 s
Bit rate : 46 b/s
Count of elements : 630
Stream size : 19.8 KiB (0%)
Language : Czech
Default : No
Forced : No

Text #5
ID : 7
Format : UTF-8
Codec ID : S_TEXT/UTF8
Codec ID/Info : UTF-8 Plain Text
Duration : 58 min 21 s
Bit rate : 43 b/s
Count of elements : 623
Stream size : 18.5 KiB (0%)
Language : Danish
Default : No
Forced : No

Text #6
ID : 8
Format : UTF-8
Codec ID : S_TEXT/UTF8
Codec ID/Info : UTF-8 Plain Text
Duration : 58 min 21 s
Bit rate : 48 b/s
Count of elements : 627
Stream size : 20.9 KiB (0%)
Language : German
Default : No
Forced : No

Text #7
ID : 9
Format : UTF-8
Codec ID : S_TEXT/UTF8
Codec ID/Info : UTF-8 Plain Text
Duration : 58 min 21 s
Bit rate : 83 b/s
Count of elements : 629
Stream size : 35.7 KiB (0%)
Language : Greek
Default : No
Forced : No

Text #8
ID : 10
Format : UTF-8
Codec ID : S_TEXT/UTF8
Codec ID/Info : UTF-8 Plain Text
Duration : 58 min 21 s
Bit rate : 48 b/s
Count of elements : 631
Stream size : 20.6 KiB (0%)
Language : Spanish
Default : No
Forced : No

Text #9
ID : 11
Format : UTF-8
Codec ID : S_TEXT/UTF8
Codec ID/Info : UTF-8 Plain Text
Duration : 58 min 21 s
Bit rate : 50 b/s
Count of elements : 635
Stream size : 21.5 KiB (0%)
Title : European
Language : Spanish
Default : No
Forced : No

Text #10
ID : 12
Format : UTF-8
Codec ID : S_TEXT/UTF8
Codec ID/Info : UTF-8 Plain Text
Duration : 58 min 21 s
Bit rate : 49 b/s
Count of elements : 631
Stream size : 21.0 KiB (0%)
Language : Spanish
Default : No
Forced : No

Text #11
ID : 13
Format : UTF-8
Codec ID : S_TEXT/UTF8
Codec ID/Info : UTF-8 Plain Text
Duration : 58 min 21 s
Bit rate : 47 b/s
Count of elements : 631
Stream size : 20.4 KiB (0%)
Title : Mexican
Language : Spanish
Default : No
Forced : No

Text #12
ID : 14
Format : UTF-8
Codec ID : S_TEXT/UTF8
Codec ID/Info : UTF-8 Plain Text
Duration : 58 min 21 s
Bit rate : 44 b/s
Count of elements : 517
Stream size : 18.9 KiB (0%)
Language : Finnish
Default : No
Forced : No

Text #13
ID : 15
Format : UTF-8
Codec ID : S_TEXT/UTF8
Codec ID/Info : UTF-8 Plain Text
Duration : 58 min 21 s
Bit rate : 49 b/s
Count of elements : 623
Stream size : 21.2 KiB (0%)
Language : French
Default : No
Forced : No

Text #14
ID : 16
Format : UTF-8
Codec ID : S_TEXT/UTF8
Codec ID/Info : UTF-8 Plain Text
Duration : 58 min 21 s
Bit rate : 81 b/s
Count of elements : 634
Stream size : 34.9 KiB (0%)
Language : Hebrew
Default : No
Forced : No

Text #15
ID : 17
Format : UTF-8
Codec ID : S_TEXT/UTF8
Codec ID/Info : UTF-8 Plain Text
Duration : 58 min 21 s
Bit rate : 47 b/s
Count of elements : 633
Stream size : 20.4 KiB (0%)
Language : Croatian
Default : No
Forced : No

Text #16
ID : 18
Format : UTF-8
Codec ID : S_TEXT/UTF8
Codec ID/Info : UTF-8 Plain Text
Duration : 58 min 21 s
Bit rate : 48 b/s
Count of elements : 637
Stream size : 20.6 KiB (0%)
Language : Hungarian
Default : No
Forced : No

Text #17
ID : 19
Format : UTF-8
Codec ID : S_TEXT/UTF8
Codec ID/Info : UTF-8 Plain Text
Duration : 58 min 21 s
Bit rate : 44 b/s
Count of elements : 634
Stream size : 19.2 KiB (0%)
Language : Indonesian
Default : No
Forced : No

Text #18
ID : 20
Format : UTF-8
Codec ID : S_TEXT/UTF8
Codec ID/Info : UTF-8 Plain Text
Duration : 58 min 21 s
Bit rate : 49 b/s
Count of elements : 632
Stream size : 21.2 KiB (0%)
Language : Italian
Default : No
Forced : No

Text #19
ID : 21
Format : UTF-8
Codec ID : S_TEXT/UTF8
Codec ID/Info : UTF-8 Plain Text
Duration : 58 min 12 s
Bit rate : 49 b/s
Count of elements : 663
Stream size : 21.3 KiB (0%)
Language : Japanese
Default : No
Forced : No

Text #20
ID : 22
Format : UTF-8
Codec ID : S_TEXT/UTF8
Codec ID/Info : UTF-8 Plain Text
Duration : 58 min 21 s
Bit rate : 60 b/s
Count of elements : 636
Stream size : 25.7 KiB (0%)
Language : Korean
Default : No
Forced : No

Text #21
ID : 23
Format : UTF-8
Codec ID : S_TEXT/UTF8
Codec ID/Info : UTF-8 Plain Text
Duration : 58 min 21 s
Bit rate : 49 b/s
Count of elements : 610
Stream size : 21.1 KiB (0%)
Language : Malay
Default : No
Forced : No

Text #22
ID : 24
Format : UTF-8
Codec ID : S_TEXT/UTF8
Codec ID/Info : UTF-8 Plain Text
Duration : 58 min 21 s
Bit rate : 43 b/s
Count of elements : 498
Stream size : 18.4 KiB (0%)
Language : Norwegian Bokmal
Default : No
Forced : No

Text #23
ID : 25
Format : UTF-8
Codec ID : S_TEXT/UTF8
Codec ID/Info : UTF-8 Plain Text
Duration : 58 min 21 s
Bit rate : 43 b/s
Count of elements : 558
Stream size : 18.7 KiB (0%)
Language : Dutch
Default : No
Forced : No

Text #24
ID : 26
Format : UTF-8
Codec ID : S_TEXT/UTF8
Codec ID/Info : UTF-8 Plain Text
Duration : 58 min 21 s
Bit rate : 47 b/s
Count of elements : 631
Stream size : 20.2 KiB (0%)
Language : Polish
Default : No
Forced : No

Text #25
ID : 27
Format : UTF-8
Codec ID : S_TEXT/UTF8
Codec ID/Info : UTF-8 Plain Text
Duration : 58 min 21 s
Bit rate : 46 b/s
Count of elements : 607
Stream size : 20.0 KiB (0%)
Language : Portuguese
Default : No
Forced : No

Text #26
ID : 28
Format : UTF-8
Codec ID : S_TEXT/UTF8
Codec ID/Info : UTF-8 Plain Text
Duration : 58 min 21 s
Bit rate : 48 b/s
Count of elements : 630
Stream size : 20.7 KiB (0%)
Title : Brazilian
Language : Portuguese
Default : No
Forced : No

Text #27
ID : 29
Format : UTF-8
Codec ID : S_TEXT/UTF8
Codec ID/Info : UTF-8 Plain Text
Duration : 58 min 21 s
Bit rate : 57 b/s
Count of elements : 630
Stream size : 24.5 KiB (0%)
Language : Romanian
Default : No
Forced : No

Text #28
ID : 30
Format : UTF-8
Codec ID : S_TEXT/UTF8
Codec ID/Info : UTF-8 Plain Text
Duration : 58 min 21 s
Bit rate : 72 b/s
Count of elements : 635
Stream size : 31.1 KiB (0%)
Language : Russian
Default : No
Forced : No

Text #29
ID : 31
Format : UTF-8
Codec ID : S_TEXT/UTF8
Codec ID/Info : UTF-8 Plain Text
Duration : 58 min 21 s
Bit rate : 47 b/s
Count of elements : 614
Stream size : 20.2 KiB (0%)
Language : Swedish
Default : No
Forced : No

Text #30
ID : 32
Format : UTF-8
Codec ID : S_TEXT/UTF8
Codec ID/Info : UTF-8 Plain Text
Duration : 58 min 21 s
Bit rate : 129 b/s
Count of elements : 636
Stream size : 55.5 KiB (0%)
Language : Thai
Default : No
Forced : No

Text #31
ID : 33
Format : UTF-8
Codec ID : S_TEXT/UTF8
Codec ID/Info : UTF-8 Plain Text
Duration : 58 min 21 s
Bit rate : 48 b/s
Count of elements : 630
Stream size : 20.5 KiB (0%)
Language : Turkish
Default : No
Forced : No

Text #32
ID : 34
Format : UTF-8
Codec ID : S_TEXT/UTF8
Codec ID/Info : UTF-8 Plain Text
Duration : 58 min 21 s
Bit rate : 77 b/s
Count of elements : 635
Stream size : 33.0 KiB (0%)
Language : Ukrainian
Default : No
Forced : No

Text #33
ID : 35
Format : UTF-8
Codec ID : S_TEXT/UTF8
Codec ID/Info : UTF-8 Plain Text
Duration : 58 min 21 s
Bit rate : 73 b/s
Count of elements : 630
Stream size : 31.3 KiB (0%)
Language : Vietnamese
Default : No
Forced : No

Text #34
ID : 36
Format : UTF-8
Codec ID : S_TEXT/UTF8
Codec ID/Info : UTF-8 Plain Text
Duration : 58 min 21 s
Bit rate : 51 b/s
Count of elements : 635
Stream size : 21.8 KiB (0%)
Title : Simplified
Language : Chinese
Default : No
Forced : No

Text #35
ID : 37
Format : UTF-8
Codec ID : S_TEXT/UTF8
Codec ID/Info : UTF-8 Plain Text
Duration : 58 min 21 s
Bit rate : 50 b/s
Count of elements : 635
Stream size : 21.6 KiB (0%)
Title : Traditional
Language : Chinese
Default : No
Forced : No

Readme/Password

Password & My Message

Screenshots