Fast Download Mirrors

[Masterclass] – Anna Wintour Teaches Creativity and Leadership • Tutorial

[Masterclass] - Anna Wintour Teaches Creativity and Leadership • Tutorial
Mirrors: MultiUp, Gdrive[GDTOT, Sharer]
Format: MKV
Source: https://www.masterclass.com/classes/anna-wintour-teaches-creativity-and-leadership/

Anna Wintour gives unprecedented access to her world, teaching you how to lead with vision and creativity—and without apology. Anna opens with the early experiences that shaped her leadership style, and she explains why there’s never been a more exciting time to work as a creative leader.

Download

General
Complete name               : 01 Introduction.1080p.WebRip.10Bit.H265-DawgFather.mkv
Format                      : Matroska
Format version              : Version 4
File size                   : 92.7 MiB
Duration                    : 8 min 52 s
Overall bit rate            : 1 460 kb/s
Movie name                  : 01 Introduction.1080p.WebRip.10Bit.H265-DawgFather
Writing application         : DVDFab
Writing library             : DVDFab
ErrorDetectionType          : Per level 1

Video
ID                          : 1
Format                      : HEVC
Format/Info                 : High Efficiency Video Coding
Format profile              : Main 10@L4@Main
Codec ID                    : V_MPEGH/ISO/HEVC
Duration                    : 8 min 52 s
Bit rate                    : 1 239 kb/s
Width                       : 1 920 pixels
Height                      : 1 080 pixels
Display aspect ratio        : 16:9
Frame rate mode             : Variable
Original frame rate         : 24.000 FPS
Color space                 : YUV
Chroma subsampling          : 4:2:0
Bit depth                   : 10 bits
Stream size                 : 78.6 MiB (85%)
Writing library             : x265 2.9:[Windows][GCC 7.1.0][64 bit] 10bit
Encoding settings           : cpuid=1111039 / frame-threads=4 / wpp / no-pmode / no-pme / no-psnr / no-ssim / log-level=2 / input-csp=1 / input-res=1920x1080 / interlace=0 / total-frames=0 / level-idc=0 / high-tier=1 / uhd-bd=0 / ref=3 / no-allow-non-conformance / no-repeat-headers / annexb / no-aud / no-hrd / info / hash=0 / no-temporal-layers / open-gop / min-keyint=24 / keyint=250 / gop-lookahead=0 / bframes=4 / b-adapt=2 / b-pyramid / bframe-bias=0 / rc-lookahead=20 / lookahead-slices=6 / scenecut=40 / radl=0 / no-intra-refresh / ctu=64 / min-cu-size=8 / no-rect / no-amp / max-tu-size=32 / tu-inter-depth=1 / tu-intra-depth=1 / limit-tu=0 / rdoq-level=0 / dynamic-rd=0.00 / no-ssim-rd / signhide / no-tskip / nr-intra=0 / nr-inter=0 / no-constrained-intra / strong-intra-smoothing / max-merge=2 / limit-refs=3 / no-limit-modes / me=1 / subme=2 / merange=57 / temporal-mvp / weightp / no-weightb / no-analyze-src-pics / deblock=0:0 / sao / no-sao-non-deblock / rd=3 / no-early-skip / rskip / no-fast-intra / no-tskip-fast / no-cu-lossless / no-b-intra / no-splitrd-skip / rdpenalty=0 / psy-rd=2.00 / psy-rdoq=0.00 / no-rd-refine / no-lossless / cbqpoffs=0 / crqpoffs=0 / rc=abr / bitrate=1245 / qcomp=0.60 / qpstep=4 / stats-write=0 / stats-read=0 / ipratio=1.40 / pbratio=1.30 / aq-mode=1 / aq-strength=1.00 / cutree / zone-count=0 / no-strict-cbr / qg-size=32 / no-rc-grain / qpmax=69 / qpmin=0 / no-const-vbv / sar=1 / overscan=0 / videoformat=5 / range=0 / colorprim=2 / transfer=2 / colormatrix=2 / chromaloc=0 / display-window=0 / max-cll=0,0 / min-luma=0 / max-luma=1023 / log2-max-poc-lsb=8 / vui-timing-info / vui-hrd-info / slices=1 / no-opt-qp-pps / no-opt-ref-list-length-pps / no-multi-pass-opt-rps / scenecut-bias=0.05 / no-opt-cu-delta-qp / no-aq-motion / no-hdr / no-hdr-opt / no-dhdr10-opt / no-idr-recovery-sei / analysis-reuse-level=5 / scale-factor=0 / refine-intra=0 / refine-inter=0 / refine-mv=0 / no-limit-sao / ctu-info=0 / no-lowpass-dct / refine-mv-type=0 / copy-pic=1 / max-ausize-factor=1.0 / no-dynamic-refine / no-single-sei
Default                     : Yes
Forced                      : No

Audio
ID                          : 2
Format                      : AC-3
Format/Info                 : Audio Coding 3
Commercial name             : Dolby Digital
Codec ID                    : A_AC3
Duration                    : 8 min 52 s
Bit rate mode               : Constant
Bit rate                    : 192 kb/s
Channel(s)                  : 2 channels
Channel layout              : L R
Sampling rate               : 48.0 kHz
Frame rate                  : 31.250 FPS (1536 SPF)
Bit depth                   : 32 bits
Compression mode            : Lossy
Stream size                 : 12.2 MiB (13%)
Writing library             : DVDFab ac3
Service kind                : Complete Main
Default                     : Yes
Forced                      : No

About the Instructor

A fashion and media icon, Anna Wintour has been driving our cultural conversation for more than 30 years. The Vogue Editor-in-Chief and Artistic Director of Condé Nast takes off her signature sunglasses and gives you unprecedented access to her world. See how Anna nurtures talent, makes bold decisions, and evolves a brand. Learn how to lead with impact from a visionary creative leader.

Lesson Plan
  1. Introduction
  2. Getting the Work Done: Anna’s Management Tips
  3. Starting Out: Finding Your Voice and Succeeding
  4. Inside Vogue: Leading With a Vision
  5. Editorial Decision-Making
  6. Executing a Vision: Transforming the Met Gala
  7. The Power of an Image: Photographers and Models
  8. Evolving a Brand: A Look Back at Iconic Vogue Covers
  9. Designers: What It Takes to Succeed
  10. Spotting Designer Talent: CFDA/Vogue Fashion Fund
  11. Case Studies: Lessons From Creative Leaders
  12. Leading With Impact