Fast Download Mirrors

Mayor of Kingstown (2021-) • TVSeries | S01.1080p.AMZN.WEB-DL.DDP5.1.H.264-TOMMY [50.31 GB]

Mayor of Kingstown Crime, Drama, Thriller | November 14, 2021 (United States) Summary: The McLusky family are power brokers tackling themes of systemic racism, corruption and inequality in Kingstown, Michigan, where the business of incarceration is the only thriving industry.
Countries: United StatesLanguages: English

Set in a small Michigan town where the only industry remaining are federal, state, and private prisons, the story follows the McClusky family, the power brokers between the police, criminals, inmates, prison guards and politicians, in a city completely dependent on prisons and the prisoners they contain.

Mirrors: GDrive [GDToT, Index], MultiUp
Format: MKV
Credits: TOMMY
Seasons: 1 Complete

Download

General
Unique ID                                : 155981204381479168236344689016941658424 (0x7558E3215F96F1502E741A409CF94138)
Complete name                            : Mayor.of.Kingstown.S01E01.The.Mayor.of.Kingstown.1080p.AMZN.WEB-DL.DDP5.1.H.264-TOMMY.mkv
Format                                   : Matroska
Format version                           : Version 4
File size                                : 6.30 GiB
Duration                                 : 1 h 6 min
Overall bit rate                         : 13.7 Mb/s
Encoded date                             : UTC 2021-11-16 18:38:20
Writing application                      : mkvmerge v19.0.0 ('Brave Captain') 64-bit
Writing library                          : libebml v1.3.5 + libmatroska v1.4.8

Video
ID                                       : 1
Format                                   : AVC
Format/Info                              : Advanced Video Codec
Format profile                           : High@L4
Format settings                          : CABAC / 4 Ref Frames
Format settings, CABAC                   : Yes
Format settings, Reference frames        : 4 frames
Codec ID                                 : V_MPEG4/ISO/AVC
Duration                                 : 1 h 6 min
Bit rate                                 : 13.0 Mb/s
Width                                    : 1 920 pixels
Height                                   : 960 pixels
Display aspect ratio                     : 2.000
Frame rate mode                          : Constant
Frame rate                               : 24.000 FPS
Color space                              : YUV
Chroma subsampling                       : 4:2:0
Bit depth                                : 8 bits
Scan type                                : Progressive
Bits/(Pixel*Frame)                       : 0.295
Stream size                              : 6.01 GiB (95%)
Default                                  : Yes
Forced                                   : No
Color range                              : Limited
Color primaries                          : BT.709
Transfer characteristics                 : BT.709
Matrix coefficients                      : BT.709

Audio
ID                                       : 2
Format                                   : E-AC-3
Format/Info                              : Enhanced AC-3
Commercial name                          : Dolby Digital Plus
Codec ID                                 : A_EAC3
Duration                                 : 1 h 6 min
Bit rate mode                            : Constant
Bit rate                                 : 640 kb/s
Channel(s)                               : 6 channels
Channel layout                           : L R C LFE Ls Rs
Sampling rate                            : 48.0 kHz
Frame rate                               : 31.250 FPS (1536 SPF)
Compression mode                         : Lossy
Stream size                              : 302 MiB (5%)
Language                                 : English
Service kind                             : Complete Main
Default                                  : Yes
Forced                                   : No

Text
ID                                       : 3
Format                                   : UTF-8
Codec ID                                 : S_TEXT/UTF8
Codec ID/Info                            : UTF-8 Plain Text
Duration                                 : 1 h 5 min
Bit rate                                 : 65 b/s
Count of elements                        : 1001
Stream size                              : 31.5 KiB (0%)
Title                                    : English (SDH)
Language                                 : English
Default                                  : No
Forced                                   : No

Readme/Password

Password & My Message