Fast Download Mirrors

Mistletoe Mixup (2021) • Movie | 1080p.WEB.H264-NAISU [5.7GB]

Mistletoe Mixup (2021) • Movie
Mistletoe Mixup Comedy, Romance | December 1, 2021 (United States) Summary: A workaholic with no time for romance, or the holidays ends up meeting two potential suitors on the same day, but unbeknownst to her, they turn out to be brothers. A sibling squabble commenc... Read all
Countries: United StatesLanguages: English

Holly is a young workaholic with no time for romance, or the holidays. She ends up meeting two great guys on the same day, but unbeknownst to her, they turn out to be brothers. While on a holiday ski trip, a sibling rivalry ensues for her affection. Will she find true love this Christmas, or spend another holiday alone?

Mirrors: MirrorAce, MultiUp, Gdrive[GDTOT, Sharer, GAdrive]
Format: MKV
Credits: NAISU

Download

	
Video
ID : 1
Format : AVC
Format/Info : Advanced Video Codec
Format profile : High@L4
Format settings : CABAC / 4 Ref Frames
Format settings, CABAC : Yes
Format settings, Reference frames : 4 frames
Codec ID : V_MPEG4/ISO/AVC
Duration : 1 h 23 min
Bit rate mode : Constant
Bit rate : 8 989 kb/s
Nominal bit rate : 10 000 kb/s
Width : 1 920 pixels
Height : 1 080 pixels
Display aspect ratio : 16:9
Frame rate mode : Constant
Frame rate : 23.976 (24000/1001) FPS
Color space : YUV
Chroma subsampling : 4:2:0
Bit depth : 8 bits
Scan type : Progressive
Bits/(Pixel*Frame) : 0.181
Stream size : 5.24 GiB (91%)
Default : Yes
Forced : No
Color range : Limited
Color primaries : BT.709
Transfer characteristics : BT.709
Matrix coefficients : BT.709

Audio
ID : 2
Format : E-AC-3
Format/Info : Enhanced AC-3
Commercial name : Dolby Digital Plus
Codec ID : A_EAC3
Duration : 1 h 23 min
Bit rate mode : Constant
Bit rate : 640 kb/s
Channel(s) : 6 channels
Channel layout : L R C LFE Ls Rs
Sampling rate : 48.0 kHz
Frame rate : 31.250 FPS (1536 SPF)
Compression mode : Lossy
Stream size : 382 MiB (7%)
Language : English
Service kind : Complete Main
Default : Yes
Forced : No

Text
ID : 3
Format : UTF-8
Codec ID : S_TEXT/UTF8
Codec ID/Info : UTF-8 Plain Text
Title : English
Language : English
Default : No
Forced : No

Readme/Password

Password & My Message

Screenshots