Fast Download Mirrors

Mortal Kombat Legends: Battle of the Realms (2021) • Movie | BluRay

Mortal Kombat Legends: Battle of the Realms (2021) • Movie
Mortal Kombat Legends: Battle of the Realms 89min | Animation, Action, Adventure, Fantasy | August 31, 2021 (United States) Summary: The Earthrealm heroes must journey to Outworld and fight for the survival of their homeland, invaded by the forces of evil warlord Shao Kahn, in the tournament to end all tournaments: the fi... Read all
Countries: United StatesLanguages: English

The Earthrealm heroes must journey to Outworld and fight for the survival of their homeland, invaded by the forces of evil warlord Shao Kahn, in the tournament to end all tournaments: the final Mortal Kombat.

Mirrors: MirrorAce, MultiUp, Gdrive[Sharer]
Format: MKV
Credits: RARBG

Download

Video
ID : 1
Format : AVC
Format/Info : Advanced Video Codec
Format profile : High@L4
Format settings : CABAC / 2 Ref Frames
Format settings, CABAC : Yes
Format settings, Reference frames : 2 frames
Codec ID : V_MPEG4/ISO/AVC
Duration : 1 h 19 min
Bit rate : 5 504 kb/s
Width : 1 920 pixels
Height : 1 080 pixels
Display aspect ratio : 16:9
Frame rate mode : Constant
Frame rate : 23.976 (24000/1001) FPS
Color space : YUV
Chroma subsampling : 4:2:0
Bit depth : 8 bits
Scan type : Progressive
Bits/(Pixel*Frame) : 0.111
Stream size : 3.07 GiB (93%)
Writing library : x264 core 155 r2901 7d0ff22
Language : English
Default : Yes
Forced : No
Color range : Limited
Color primaries : BT.709
Transfer characteristics : BT.709
Matrix coefficients : BT.709

Audio
ID : 2
Format : AC-3
Format/Info : Audio Coding 3
Commercial name : Dolby Digital
Codec ID : A_AC3
Duration : 1 h 19 min
Bit rate mode : Constant
Bit rate : 384 kb/s
Channel(s) : 6 channels
Channel layout : L R C LFE Ls Rs
Sampling rate : 48.0 kHz
Frame rate : 31.250 FPS (1536 SPF)
Compression mode : Lossy
Stream size : 219 MiB (7%)
Language : English
Service kind : Complete Main
Default : Yes
Forced : No

Text
ID : 3
Format : UTF-8
Codec ID : S_TEXT/UTF8
Codec ID/Info : UTF-8 Plain Text
Duration : 1 h 15 min
Bit rate : 34 b/s
Count of elements : 753
Stream size : 19.0 KiB (0%)
Language : English
Default : Yes
Forced : No

Video
ID : 1
Format : AVC
Format/Info : Advanced Video Codec
Format profile : High@L4.1
Format settings : CABAC / 4 Ref Frames
Format settings, CABAC : Yes
Format settings, Reference frames : 4 frames
Codec ID : V_MPEG4/ISO/AVC
Duration : 1 h 19 min
Bit rate : 8 232 kb/s
Width : 1 920 pixels
Height : 1 080 pixels
Display aspect ratio : 16:9
Frame rate mode : Constant
Frame rate : 23.976 (24000/1001) FPS
Color space : YUV
Chroma subsampling : 4:2:0
Bit depth : 8 bits
Scan type : Progressive
Bits/(Pixel*Frame) : 0.166
Stream size : 4.59 GiB (66%)
Writing library : x264 core 164 r3065 ae03d92
Encoding settings : cabac=1 / ref=4 / deblock=1:1:1 / analyse=0x3:0x133 / me=umh / subme=9 / psy=1 / psy_rd=0.40:0.00 / mixed_ref=1 / me_range=16 / chroma_me=1 / trellis=2 / 8x8dct=1 / cqm=0 / deadzone=21,11 / fast_pskip=1 / chroma_qp_offset=-2 / threads=34 / lookahead_threads=3 / sliced_threads=0 / nr=0 / decimate=1 / interlaced=0 / bluray_compat=0 / constrained_intra=0 / bframes=5 / b_pyramid=2 / b_adapt=2 / b_bias=0 / direct=3 / weightb=1 / open_gop=0 / weightp=2 / keyint=250 / keyint_min=23 / scenecut=40 / intra_refresh=0 / rc_lookahead=60 / rc=crf / mbtree=1 / crf=16.0 / qcomp=0.60 / qpmin=0 / qpmax=69 / qpstep=4 / ip_ratio=1.40 / aq=1:0.60
Default : Yes
Forced : No

Audio
ID : 2
Format : DTS XLL
Format/Info : Digital Theater Systems
Commercial name : DTS-HD Master Audio
Codec ID : A_DTS
Duration : 1 h 19 min
Bit rate mode : Variable
Bit rate : 4 235 kb/s
Channel(s) : 6 channels
Channel layout : C L R Ls Rs LFE
Sampling rate : 48.0 kHz
Frame rate : 93.750 FPS (512 SPF)
Bit depth : 24 bits
Compression mode : Lossless
Stream size : 2.36 GiB (34%)
Language : English
Default : Yes
Forced : No

Text #1
ID : 3
Format : PGS
Muxing mode : zlib
Codec ID : S_HDMV/PGS
Codec ID/Info : Picture based subtitle format used on BDs/HD-DVDs
Duration : 1 h 16 min
Bit rate : 26.1 kb/s
Count of elements : 1884
Stream size : 14.3 MiB (0%)
Title : English SDH
Language : English
Default : No
Forced : No

Text #2
ID : 4
Format : PGS
Muxing mode : zlib
Codec ID : S_HDMV/PGS
Codec ID/Info : Picture based subtitle format used on BDs/HD-DVDs
Duration : 1 h 18 min
Bit rate : 22.2 kb/s
Count of elements : 1288
Stream size : 12.5 MiB (0%)
Title : French
Language : French
Default : No
Forced : No

Text #3
ID : 5
Format : PGS
Muxing mode : zlib
Codec ID : S_HDMV/PGS
Codec ID/Info : Picture based subtitle format used on BDs/HD-DVDs
Duration : 1 h 18 min
Bit rate : 20.5 kb/s
Count of elements : 1290
Stream size : 11.5 MiB (0%)
Title : Spanish
Language : Spanish
Default : No
Forced : No

Text #4
ID : 6
Format : PGS
Muxing mode : zlib
Codec ID : S_HDMV/PGS
Codec ID/Info : Picture based subtitle format used on BDs/HD-DVDs
Duration : 1 h 17 min
Bit rate : 30.9 kb/s
Count of elements : 1972
Stream size : 17.0 MiB (0%)
Title : German
Language : German
Default : No
Forced : No

Text #5
ID : 7
Format : PGS
Muxing mode : zlib
Codec ID : S_HDMV/PGS
Codec ID/Info : Picture based subtitle format used on BDs/HD-DVDs
Duration : 1 h 18 min
Bit rate : 20.4 kb/s
Count of elements : 1286
Stream size : 11.5 MiB (0%)
Title : Dutch
Language : Dutch
Default : No
Forced : No

Menu
00:00:00.000 : Chapter 01
00:06:47.657 : Chapter 02
00:16:36.162 : Chapter 03
00:26:02.478 : Chapter 04
00:35:15.196 : Chapter 05
00:42:37.805 : Chapter 06
00:50:00.915 : Chapter 07
00:59:14.384 : Chapter 08
01:08:39.532 : Chapter 09
01:17:13.671 : Chapter 10
01:19:49.451 : Chapter 11
Name: Mortal.Kombat.Legends.Battle.of.the.Realms.2021.1080p.BluRay.x264-PiGNUS

Release date: 31-08-2021

IMDB link: http://www.imdb.com/title/tt14901058

Resolution: 1920x1080
Audio: English DTS-HD Master 6ch 4235 kbps
Video: 8232 kbps, CRF 16
Source: 14867 kbps

Subtitles: English SDH, French, Spanish, German, Dutch

Info

Readme

Password & My Message

Screenshots
Screenshots(PiGNUS)