Fast Download Mirrors

Narcos: Mexico (2018-2021)• TVSeries | S03.1080p.NF.WEBRip.DDP5.1.Atmos.x264-AGLET [26GB]

Narcos: Mexico (2018-2021)
Narcos: Mexico 3000min | Crime, Drama | November 16, 2018 (United States) Summary: The rise of the Guadalajara Cartel as an American DEA agent learns the danger of targeting narcos in Mexico.
Countries: Mexico, United StatesLanguages: English

See the rise of the Guadalajara Cartel as an American DEA agent learns the danger of targeting narcos in 1980s Mexico.

Mirrors: MirrorAce, MultiUp, Gdrive[GDTOT], Gdrive Index
Format: MKV
Credits: AGLET
Seasons-3 Complete

Download


Narcos.Mexico.S03E10.Life.in.Wartime.1080p.NF.WEB-DL.DDP5.1.Atmos.x264-AGLET.mkv - 3.63 GB
https://new.gdtot.org/file/3898480761

Narcos.Mexico.S03E09.The.Reckoning.1080p.NF.WEB-DL.DDP5.1.Atmos.x264-AGLET.mkv - 3.08 GB
https://new.gdtot.org/file/3302195099

Narcos.Mexico.S03E08.Last.Dance.1080p.NF.WEB-DL.DDP5.1.Atmos.x264-AGLET.mkv - 3.04 GB
https://new.gdtot.org/file/3268349194

Narcos.Mexico.S03E07.La.Voz.1080p.NF.WEB-DL.DDP5.1.Atmos.x264-AGLET.mkv - 2.98 GB
https://new.gdtot.org/file/3196273164

Narcos.Mexico.S03E06.La.Jefa.1080p.NF.WEB-DL.DDP5.1.Atmos.x264-AGLET.mkv - 3.07 GB
https://new.gdtot.org/file/3296828408

Narcos.Mexico.S03E05.Boots.on.the.Ground.1080p.NF.WEB-DL.DDP5.1.Atmos.x264-AGLET.mkv - 3.01 GB
https://new.gdtot.org/file/3231615814

Narcos.Mexico.S03E04.GDL.1080p.NF.WEB-DL.DDP5.1.Atmos.x264-AGLET.mkv - 1.72 GB
https://new.gdtot.org/file/1847231994

Narcos.Mexico.S03E03.Los.Juniors.1080p.NF.WEB-DL.DDP5.1.Atmos.x264-AGLET.mkv - 1.69 GB
https://new.gdtot.org/file/1817145326

Narcos.Mexico.S03E02.Como.La.Flor.1080p.NF.WEB-DL.DDP5.1.Atmos.x264-AGLET.mkv - 2.06 GB
https://new.gdtot.org/file/2208350888

Narcos.Mexico.S03E01.12.Steps.1080p.NF.WEB-DL.DDP5.1.Atmos.x264-AGLET.mkv - 1.8 GB
https://new.gdtot.org/file/1934520724

[Single Folder]
https://official3.the-ambassador1.workers.dev/0:/Narcos.Mexico.S03/

https://multiup.org/ad46daab544e92b94b0413b843809468
https://multiup.org/d04df143f615ed20b6ddc819503279b0
https://multiup.org/a1198a1ac8993b87d3af576e5585212a
https://multiup.org/e1d5cdd9d6d1c840b41d83d75d6655d9
https://multiup.org/75e36882fa982ff268897d0546ee8679
https://multiup.org/0693ef7800a62910c9c863514a4eff16
https://multiup.org/5a19d7c77f4dd1ff0deb81c921ab10f1
https://multiup.org/cb31366a85b5f057c7b6935f7b73fd13
https://multiup.org/9e996809ac7be46600e3465f78d1e1e5
https://multiup.org/5e716570774530084d25e9e98b73a59a

https://mirrorace.org/m/35Iy5
https://mirrorace.org/m/35Iy6
https://mirrorace.org/m/35Iy8
https://mirrorace.org/m/35Iy9
https://mirrorace.org/m/3LG0u
https://mirrorace.org/m/3LG0x
https://mirrorace.org/m/5Nyny
https://mirrorace.org/m/4rDt3
https://mirrorace.org/m/3LG0N
https://mirrorace.org/m/3LG0T
Video
ID : 1
Format : AVC
Format/Info : Advanced Video Codec
Format profile : High@L4
Format settings : CABAC / 4 Ref Frames
Format settings, CABAC : Yes
Format settings, Reference frames : 4 frames
Codec ID : V_MPEG4/ISO/AVC
Duration : 1 h 8 min
Bit rate mode : Variable
Bit rate : 6 771 kb/s
Maximum bit rate : 20.0 Mb/s
Width : 1 920 pixels
Height : 1 080 pixels
Display aspect ratio : 16:9
Frame rate mode : Constant
Frame rate : 23.976 (24000/1001) FPS
Color space : YUV
Chroma subsampling : 4:2:0
Bit depth : 8 bits
Scan type : Progressive
Bits/(Pixel*Frame) : 0.136
Stream size : 3.26 GiB (90%)
Writing library : x264 core 148 r2724 dbe0335
Encoding settings : cabac=1 / ref=4 / deblock=1:0:0 / analyse=0x3:0x111 / me=umh / subme=10 / psy=1 / psy_rd=1.00:0.00 / mixed_ref=1 / me_range=120 / chroma_me=1 / trellis=2 / 8x8dct=1 / cqm=0 / deadzone=21,11 / fast_pskip=1 / chroma_qp_offset=-2 / threads=8 / lookahead_threads=2 / sliced_threads=0 / nr=0 / decimate=1 / interlaced=0 / bluray_compat=0 / stitchable=1 / constrained_intra=0 / bframes=16 / b_pyramid=2 / b_adapt=2 / b_bias=0 / direct=3 / weightb=1 / open_gop=0 / weightp=2 / keyint=240 / keyint_min=121 / scenecut=0 / intra_refresh=0 / rc_lookahead=240 / rc=crf / mbtree=1 / crf=16.0 / qcomp=0.50 / qpmin=6 / qpmax=51 / qpstep=4 / vbv_maxrate=20000 / vbv_bufsize=25000 / crf_max=0.0 / nal_hrd=vbr / filler=0 / ip_ratio=1.40 / aq=1:0.80
Language : English
Default : Yes
Forced : No

Audio
ID : 2
Format : E-AC-3 JOC
Format/Info : Enhanced AC-3 with Joint Object Coding
Commercial name : Dolby Digital Plus with Dolby Atmos
Codec ID : A_EAC3
Duration : 1 h 8 min
Bit rate mode : Constant
Bit rate : 768 kb/s
Channel(s) : 6 channels
Channel layout : L R C LFE Ls Rs
Sampling rate : 48.0 kHz
Frame rate : 31.250 FPS (1536 SPF)
Compression mode : Lossy
Stream size : 379 MiB (10%)
Language : English
Service kind : Complete Main
Default : Yes
Forced : No
Complexity index : 16
Number of dynamic objects : 15
Bed channel count : 1 channel
Bed channel configuration : LFE

Text #1
ID : 3
Format : UTF-8
Codec ID : S_TEXT/UTF8
Codec ID/Info : UTF-8 Plain Text
Duration : 1 h 1 min
Bit rate : 19 b/s
Count of elements : 372
Stream size : 8.86 KiB (0%)
Title : Forced
Language : English
Default : Yes
Forced : Yes

Text #2
ID : 4
Format : UTF-8
Codec ID : S_TEXT/UTF8
Codec ID/Info : UTF-8 Plain Text
Duration : 1 h 5 min
Bit rate : 37 b/s
Count of elements : 663
Stream size : 18.2 KiB (0%)
Language : English
Default : No
Forced : No

Text #3
ID : 5
Format : UTF-8
Codec ID : S_TEXT/UTF8
Codec ID/Info : UTF-8 Plain Text
Duration : 1 h 7 min
Bit rate : 44 b/s
Count of elements : 763
Stream size : 21.7 KiB (0%)
Title : SDH
Language : English
Default : No
Forced : No

Text #4
ID : 6
Format : UTF-8
Codec ID : S_TEXT/UTF8
Codec ID/Info : UTF-8 Plain Text
Duration : 1 h 7 min
Bit rate : 66 b/s
Count of elements : 674
Stream size : 33.0 KiB (0%)
Language : Arabic
Default : No
Forced : No

Text #5
ID : 7
Format : UTF-8
Codec ID : S_TEXT/UTF8
Codec ID/Info : UTF-8 Plain Text
Duration : 1 h 7 min
Bit rate : 35 b/s
Count of elements : 667
Stream size : 17.3 KiB (0%)
Language : Czech
Default : No
Forced : No

Text #6
ID : 8
Format : UTF-8
Codec ID : S_TEXT/UTF8
Codec ID/Info : UTF-8 Plain Text
Duration : 1 h 7 min
Bit rate : 35 b/s
Count of elements : 669
Stream size : 17.5 KiB (0%)
Language : Danish
Default : No
Forced : No

Text #7
ID : 9
Format : UTF-8
Codec ID : S_TEXT/UTF8
Codec ID/Info : UTF-8 Plain Text
Duration : 1 h 7 min
Bit rate : 37 b/s
Count of elements : 671
Stream size : 18.5 KiB (0%)
Language : German
Default : No
Forced : No

Text #8
ID : 10
Format : UTF-8
Codec ID : S_TEXT/UTF8
Codec ID/Info : UTF-8 Plain Text
Duration : 1 h 7 min
Bit rate : 62 b/s
Count of elements : 674
Stream size : 31.1 KiB (0%)
Language : Greek
Default : No
Forced : No

Text #9
ID : 11
Format : UTF-8
Codec ID : S_TEXT/UTF8
Codec ID/Info : UTF-8 Plain Text
Duration : 1 h 7 min
Bit rate : 49 b/s
Count of elements : 799
Stream size : 24.5 KiB (0%)
Title : SDH
Language : Spanish
Default : No
Forced : No

Text #10
ID : 12
Format : UTF-8
Codec ID : S_TEXT/UTF8
Codec ID/Info : UTF-8 Plain Text
Duration : 1 h 7 min
Bit rate : 18 b/s
Count of elements : 292
Stream size : 9.20 KiB (0%)
Title : European
Language : Spanish
Default : No
Forced : No

Text #11
ID : 13
Format : UTF-8
Codec ID : S_TEXT/UTF8
Codec ID/Info : UTF-8 Plain Text
Duration : 1 h 7 min
Bit rate : 49 b/s
Count of elements : 800
Stream size : 24.4 KiB (0%)
Title : European (SDH)
Language : Spanish
Default : No
Forced : No

Text #12
ID : 14
Format : UTF-8
Codec ID : S_TEXT/UTF8
Codec ID/Info : UTF-8 Plain Text
Duration : 1 h 7 min
Bit rate : 34 b/s
Count of elements : 671
Stream size : 16.8 KiB (0%)
Language : Finnish
Default : No
Forced : No

Text #13
ID : 15
Format : UTF-8
Codec ID : S_TEXT/UTF8
Codec ID/Info : UTF-8 Plain Text
Duration : 1 h 7 min
Bit rate : 35 b/s
Count of elements : 669
Stream size : 17.7 KiB (0%)
Language : French
Default : No
Forced : No

Text #14
ID : 16
Format : UTF-8
Codec ID : S_TEXT/UTF8
Codec ID/Info : UTF-8 Plain Text
Duration : 1 h 7 min
Bit rate : 59 b/s
Count of elements : 675
Stream size : 29.6 KiB (0%)
Language : Hebrew
Default : No
Forced : No

Text #15
ID : 17
Format : UTF-8
Codec ID : S_TEXT/UTF8
Codec ID/Info : UTF-8 Plain Text
Duration : 1 h 7 min
Bit rate : 34 b/s
Count of elements : 673
Stream size : 17.1 KiB (0%)
Language : Croatian
Default : No
Forced : No

Text #16
ID : 18
Format : UTF-8
Codec ID : S_TEXT/UTF8
Codec ID/Info : UTF-8 Plain Text
Duration : 1 h 7 min
Bit rate : 36 b/s
Count of elements : 668
Stream size : 18.1 KiB (0%)
Language : Hungarian
Default : No
Forced : No

Text #17
ID : 19
Format : UTF-8
Codec ID : S_TEXT/UTF8
Codec ID/Info : UTF-8 Plain Text
Duration : 1 h 7 min
Bit rate : 35 b/s
Count of elements : 671
Stream size : 17.3 KiB (0%)
Language : Indonesian
Default : No
Forced : No

Text #18
ID : 20
Format : UTF-8
Codec ID : S_TEXT/UTF8
Codec ID/Info : UTF-8 Plain Text
Duration : 1 h 7 min
Bit rate : 35 b/s
Count of elements : 669
Stream size : 17.8 KiB (0%)
Language : Italian
Default : No
Forced : No

Text #19
ID : 21
Format : UTF-8
Codec ID : S_TEXT/UTF8
Codec ID/Info : UTF-8 Plain Text
Duration : 1 h 7 min
Bit rate : 44 b/s
Count of elements : 634
Stream size : 21.8 KiB (0%)
Language : Japanese
Default : No
Forced : No

Text #20
ID : 22
Format : UTF-8
Codec ID : S_TEXT/UTF8
Codec ID/Info : UTF-8 Plain Text
Duration : 1 h 7 min
Bit rate : 44 b/s
Count of elements : 666
Stream size : 22.2 KiB (0%)
Language : Korean
Default : No
Forced : No

Text #21
ID : 23
Format : UTF-8
Codec ID : S_TEXT/UTF8
Codec ID/Info : UTF-8 Plain Text
Duration : 1 h 7 min
Bit rate : 34 b/s
Count of elements : 670
Stream size : 16.9 KiB (0%)
Language : Malay
Default : No
Forced : No

Text #22
ID : 24
Format : UTF-8
Codec ID : S_TEXT/UTF8
Codec ID/Info : UTF-8 Plain Text
Duration : 1 h 7 min
Bit rate : 33 b/s
Count of elements : 671
Stream size : 16.7 KiB (0%)
Language : Norwegian Bokmal
Default : No
Forced : No

Text #23
ID : 25
Format : UTF-8
Codec ID : S_TEXT/UTF8
Codec ID/Info : UTF-8 Plain Text
Duration : 1 h 7 min
Bit rate : 35 b/s
Count of elements : 658
Stream size : 17.3 KiB (0%)
Language : Dutch
Default : No
Forced : No

Text #24
ID : 26
Format : UTF-8
Codec ID : S_TEXT/UTF8
Codec ID/Info : UTF-8 Plain Text
Duration : 1 h 7 min
Bit rate : 30 b/s
Count of elements : 670
Stream size : 15.1 KiB (0%)
Language : Polish
Default : No
Forced : No

Text #25
ID : 27
Format : UTF-8
Codec ID : S_TEXT/UTF8
Codec ID/Info : UTF-8 Plain Text
Duration : 1 h 7 min
Bit rate : 38 b/s
Count of elements : 667
Stream size : 19.1 KiB (0%)
Language : Portuguese
Default : No
Forced : No

Text #26
ID : 28
Format : UTF-8
Codec ID : S_TEXT/UTF8
Codec ID/Info : UTF-8 Plain Text
Duration : 1 h 7 min
Bit rate : 36 b/s
Count of elements : 670
Stream size : 17.8 KiB (0%)
Title : Brazilian
Language : Portuguese
Default : No
Forced : No

Text #27
ID : 29
Format : UTF-8
Codec ID : S_TEXT/UTF8
Codec ID/Info : UTF-8 Plain Text
Duration : 1 h 7 min
Bit rate : 42 b/s
Count of elements : 669
Stream size : 20.8 KiB (0%)
Language : Romanian
Default : No
Forced : No

Text #28
ID : 30
Format : UTF-8
Codec ID : S_TEXT/UTF8
Codec ID/Info : UTF-8 Plain Text
Duration : 1 h 7 min
Bit rate : 62 b/s
Count of elements : 674
Stream size : 30.9 KiB (0%)
Language : Russian
Default : No
Forced : No

Text #29
ID : 31
Format : UTF-8
Codec ID : S_TEXT/UTF8
Codec ID/Info : UTF-8 Plain Text
Duration : 1 h 7 min
Bit rate : 32 b/s
Count of elements : 669
Stream size : 16.3 KiB (0%)
Language : Swedish
Default : No
Forced : No

Text #30
ID : 32
Format : UTF-8
Codec ID : S_TEXT/UTF8
Codec ID/Info : UTF-8 Plain Text
Duration : 1 h 7 min
Bit rate : 95 b/s
Count of elements : 675
Stream size : 47.3 KiB (0%)
Language : Thai
Default : No
Forced : No

Text #31
ID : 33
Format : UTF-8
Codec ID : S_TEXT/UTF8
Codec ID/Info : UTF-8 Plain Text
Duration : 1 h 7 min
Bit rate : 36 b/s
Count of elements : 673
Stream size : 18.2 KiB (0%)
Language : Turkish
Default : No
Forced : No

Text #32
ID : 34
Format : UTF-8
Codec ID : S_TEXT/UTF8
Codec ID/Info : UTF-8 Plain Text
Duration : 1 h 7 min
Bit rate : 62 b/s
Count of elements : 673
Stream size : 30.8 KiB (0%)
Language : Ukrainian
Default : No
Forced : No

Text #33
ID : 35
Format : UTF-8
Codec ID : S_TEXT/UTF8
Codec ID/Info : UTF-8 Plain Text
Duration : 1 h 7 min
Bit rate : 51 b/s
Count of elements : 672
Stream size : 25.3 KiB (0%)
Language : Vietnamese
Default : No
Forced : No

Text #34
ID : 36
Format : UTF-8
Codec ID : S_TEXT/UTF8
Codec ID/Info : UTF-8 Plain Text
Duration : 1 h 7 min
Bit rate : 42 b/s
Count of elements : 675
Stream size : 21.2 KiB (0%)
Title : Simplified
Language : Chinese
Default : No
Forced : No

Text #35
ID : 37
Format : UTF-8
Codec ID : S_TEXT/UTF8
Codec ID/Info : UTF-8 Plain Text
Duration : 1 h 7 min
Bit rate : 39 b/s
Count of elements : 674
Stream size : 19.4 KiB (0%)
Title : Traditional
Language : Chinese
Default : No
Forced : No

Readme/Password

Password & My Message

Screenshots