Fast Download Mirrors

Night at the Eagle Inn (2021) • Movie | 2160p.WEB-DL.x265.10bit.SDR.DD5.1-NOGRP [10GB]

Night at the Eagle Inn (2021)
Night at the Eagle Inn 70min | Horror, Mystery, Thriller | November 2, 2021 (United States) Summary: Fraternal twins spend a hellish night at the remote inn their father disappeared from the night they were born.
Countries: United StatesLanguages: English

Fraternal twins spend a hellish night at the remote inn their father disappeared from the night they were born.

Mirrors: MultiUp, Gdrive[GDTOT, Sharer]
Format: MKV
Credits: -

Download

Video
ID : 1
Format : HEVC
Format/Info : High Efficiency Video Coding
Format profile : Main 10@L5@High
Codec ID : V_MPEGH/ISO/HEVC
Duration : 1 h 10 min
Bit rate : 20.4 Mb/s
Width : 3 840 pixels
Height : 1 632 pixels
Display aspect ratio : 2.35:1
Frame rate mode : Constant
Frame rate : 23.976 FPS
Color space : YUV
Chroma subsampling : 4:2:0
Bit depth : 10 bits
Bits/(Pixel*Frame) : 0.136
Stream size : 9.98 GiB (98%)
Default : Yes
Forced : No
Color range : Limited
Color primaries : BT.709
Transfer characteristics : BT.709
Matrix coefficients : BT.709

Audio
ID : 2
Format : AC-3
Format/Info : Audio Coding 3
Commercial name : Dolby Digital
Codec ID : A_AC3
Duration : 1 h 10 min
Bit rate mode : Constant
Bit rate : 384 kb/s
Channel(s) : 6 channels
Channel layout : L R C LFE Ls Rs
Sampling rate : 48.0 kHz
Frame rate : 31.250 FPS (1536 SPF)
Compression mode : Lossy
Stream size : 193 MiB (2%)
Title : English
Language : English
Service kind : Complete Main
Default : No
Forced : No

Text
ID : 3
Format : UTF-8
Codec ID : S_TEXT/UTF8
Codec ID/Info : UTF-8 Plain Text
Duration : 1 h 5 min
Bit rate : 51 b/s
Count of elements : 1125
Stream size : 25.1 KiB (0%)
Language : English
Default : Yes
Forced : No

Readme/Password

Password & My Message

Screenshots