Fast Download Mirrors

Nine Perfect Strangers (2021) • TV Mini Series | 1080p.WEBRip.DDP5.1.x264-FLUX

Nine Perfect Strangers (2021) • TV Mini Series
Nine Perfect Strangers 388min | Drama, Mystery, Thriller | August 18, 2021 (United States) Summary: Nine stressed city dwellers visit a boutique health-and-wellness resort that promises healing and transformation. The resort's director is a woman on a mission to reinvigorate their tired mi... Read all
Countries: United StatesLanguages: English

Nine stressed city dwellers visit a boutique health-and-wellness resort that promises healing and transformation. The resort’s director is a woman on a mission to reinvigorate their tired minds and bodies.

Mirrors: 1fichier, MultiUp, Gdrive[GDTOT, Sharer]
Format: MKV
Credits: RARBG
Season-1 Complete

Download – [Single File]

Video
ID : 1
Format : AVC
Format/Info : Advanced Video Codec
Format profile : High@L4
Format settings : CABAC / 4 Ref Frames
Format settings, CABAC : Yes
Format settings, Reference frames : 4 frames
Codec ID : V_MPEG4/ISO/AVC
Duration : 55 min 48 s
Bit rate : 4 905 kb/s
Width : 1 920 pixels
Height : 1 080 pixels
Display aspect ratio : 16:9
Frame rate mode : Constant
Frame rate : 23.976 (24000/1001) FPS
Color space : YUV
Chroma subsampling : 4:2:0
Bit depth : 8 bits
Scan type : Progressive
Bits/(Pixel*Frame) : 0.099
Stream size : 1.91 GiB (95%)
Default : Yes
Forced : No

Audio
ID : 2
Format : E-AC-3
Format/Info : Enhanced AC-3
Commercial name : Dolby Digital Plus
Codec ID : A_EAC3
Duration : 55 min 48 s
Bit rate mode : Constant
Bit rate : 256 kb/s
Channel(s) : 6 channels
Channel layout : L R C LFE Ls Rs
Sampling rate : 48.0 kHz
Frame rate : 31.250 FPS (1536 SPF)
Compression mode : Lossy
Stream size : 102 MiB (5%)
Language : English
Service kind : Complete Main
Default : Yes
Forced : No

Text #1
ID : 3
Format : UTF-8
Codec ID : S_TEXT/UTF8
Codec ID/Info : UTF-8 Plain Text
Duration : 53 min 46 s
Bit rate : 80 b/s
Count of elements : 882
Stream size : 31.6 KiB (0%)
Language : English
Default : No
Forced : No

Text #2
ID : 4
Format : UTF-8
Codec ID : S_TEXT/UTF8
Codec ID/Info : UTF-8 Plain Text
Duration : 55 min 31 s
Bit rate : 85 b/s
Count of elements : 1033
Stream size : 34.9 KiB (0%)
Title : SDH
Language : English
Default : No
Forced : No

Text #3
ID : 5
Format : UTF-8
Codec ID : S_TEXT/UTF8
Codec ID/Info : UTF-8 Plain Text
Duration : 54 min 15 s
Bit rate : 85 b/s
Count of elements : 982
Stream size : 34.0 KiB (0%)
Title : SDH
Language : Spanish
Default : No
Forced : No

Menu
00:11:27.000 : Chapter 1
00:19:31.000 : Chapter 2
00:31:26.000 : Chapter 3
00:44:48.000 : Chapter 4
00:54:13.000 : Chapter 5 - Credits

Readme

Password & My Message

Screenshots