Fast Download Mirrors

No Time to Die (2021) • Movie | 2160p.WEB-DL.DDP5.1.Atmos.DV.MP4.x265-NOTIMETOCRY [28GB]

No Time to Die (2021) • Movie
No Time to Die Action, Adventure, Thriller | October 8, 2021 (United States) Summary: James Bond has left active service. His peace is short-lived when Felix Leiter, an old friend from the CIA, turns up asking for help, leading Bond onto the trail of a mysterious villain arme... Read all
Countries: United Kingdom, United StatesLanguages: English, French, Italian, Russian, Spanish

Bond has left active service and is enjoying a tranquil life in Jamaica. His peace is short-lived when his old friend Felix Leiter from the CIA turns up asking for help. The mission to rescue a kidnapped scientist turns out to be far more treacherous than expected, leading Bond onto the trail of a mysterious villain armed with dangerous new technology.

Mirrors: 1fichier, MultiUp, Gdrive[GDTOT, Sharer], Gdrive Index
Format: MP4
Credits: NOTIMETOCRY

Download

Video
ID : 1
Format : HEVC
Format/Info : High Efficiency Video Coding
Format profile : Main 10@L5@High
HDR format : Dolby Vision, Version 1.0, dvhe.05.06, BL+RPU
Codec ID : dvhe
Codec ID/Info : High Efficiency Video Coding with Dolby Vision
Duration : 2 h 43 min
Bit rate : 24.5 Mb/s
Width : 3 832 pixels
Height : 1 600 pixels
Original height : 1 596 pixels
Display aspect ratio : 2.40:1
Original display aspect ratio : 2.40:1
Frame rate mode : Constant
Frame rate : 23.976 (24000/1001) FPS
Color space : YUV
Chroma subsampling : 4:2:0
Bit depth : 10 bits
Bits/(Pixel*Frame) : 0.166
Stream size : 27.9 GiB (97%)
Default : Yes
Alternate group : 1
Encoded date : UTC 2021-11-09 05:20:38
Tagged date : UTC 2021-11-09 05:27:38
Codec configuration box : hvcC+dvcC

Audio
ID : 2
Format : E-AC-3 JOC
Format/Info : Enhanced AC-3 with Joint Object Coding
Commercial name : Dolby Digital Plus with Dolby Atmos
Codec ID : ec-3
Duration : 2 h 43 min
Bit rate mode : Constant
Bit rate : 768 kb/s
Maximum bit rate : 811 kb/s
Channel(s) : 6 channels
Channel layout : L R C LFE Ls Rs
Sampling rate : 48.0 kHz
Frame rate : 31.250 FPS (1536 SPF)
Compression mode : Lossy
Stream size : 898 MiB (3%)
Title : English (UK)
Language : English
Service kind : Complete Main
Encoded date : UTC 2021-11-09 05:04:48
Tagged date : UTC 2021-11-09 05:27:38
Complexity index : Not present / 16
Number of dynamic objects : 15
Bed channel count : 1 channel
Bed channel configuration : LFE

Text #1
ID : 3
Format : Timed Text
Codec ID : tx3g
Duration : 2 h 16 min
Bit rate mode : Variable
Bit rate : 1 b/s
Stream size : 1.40 KiB (0%)
Title : Forced
Language : English
Forced : No
Encoded date : UTC 2021-11-09 05:27:36
Tagged date : UTC 2021-11-09 05:27:38

Text #2
ID : 4
Format : Timed Text
Codec ID : tx3g
Duration : 2 h 36 min
Bit rate mode : Variable
Bit rate : 50 b/s
Stream size : 57.8 KiB (0%)
Title : English
Language : English
Forced : No
Encoded date : UTC 2021-11-09 05:27:36
Tagged date : UTC 2021-11-09 05:27:38

Text #3
ID : 5
Format : Timed Text
Codec ID : tx3g
Duration : 2 h 40 min
Bit rate mode : Variable
Bit rate : 62 b/s
Stream size : 73.2 KiB (0%)
Title : SDH
Language : English
Forced : No
Encoded date : UTC 2021-11-09 05:27:36
Tagged date : UTC 2021-11-09 05:27:38

Text #4
ID : 6
Format : Timed Text
Codec ID : tx3g
Duration : 2 h 43 min
Bit rate mode : Variable
Bit rate : 44 b/s
Stream size : 53.0 KiB (0%)
Title : Latin American
Language : Spanish
Forced : No
Encoded date : UTC 2021-11-09 05:27:37
Tagged date : UTC 2021-11-09 05:27:38

Text #5
ID : 7
Format : Timed Text
Codec ID : tx3g
Duration : 2 h 42 min
Bit rate mode : Variable
Bit rate : 37 b/s
Stream size : 44.4 KiB (0%)
Language : French
Forced : No
Encoded date : UTC 2021-11-09 05:27:37
Tagged date : UTC 2021-11-09 05:27:38

Text #6
ID : 8
Format : Timed Text
Codec ID : tx3g
Duration : 2 h 43 min
Bit rate mode : Variable
Bit rate : 42 b/s
Stream size : 50.7 KiB (0%)
Language : Korean
Forced : No
Encoded date : UTC 2021-11-09 05:27:38
Tagged date : UTC 2021-11-09 05:27:38

Menu
00:00:00.000 : Chapter 1
00:11:57.125 : Chapter 2
00:27:09.750 : Chapter 3
00:43:46.000 : Chapter 4
00:56:58.099 : Chapter 5
01:04:09.000 : Chapter 6
01:13:06.500 : Chapter 7
01:22:28.832 : Chapter 8
01:33:49.332 : Chapter 9
01:51:42.000 : Chapter 10
02:06:54.000 : Chapter 11
02:25:23.500 : Chapter 12
02:35:07.000 : Chapter 13

Readme/Password

Password & My Message