Fast Download Mirrors

Old (2021) • Movie | 1080p.BluRay.REMUX.AVC.Atmos-TRiToN

Old (2021) • Movie
Old 108min | Drama, Horror, Mystery, Thriller | July 23, 2021 (United States) Summary: A vacationing family discovers that the secluded beach where they're relaxing for a few hours is somehow causing them to age rapidly, reducing their entire lives into a single day.
Countries: United StatesLanguages: English

A vacationing family discovers that the secluded beach where they’re relaxing for a few hours is somehow causing them to age rapidly, reducing their entire lives into a single day.

Mirrors: 1fichier, Gdrive[GDTOT, Sharer], Gdrive Index
Format: MKV
Credits: TRiToN

Download

Complete name : Old.2021.1080p.BluRay.REMUX.AVC.Atmos-TRiToN.mkv
Format : Matroska
Format version : Version 4
File size : 25.5 GiB
Duration : 1 h 48 min
Overall bit rate mode : Variable
Overall bit rate : 33.7 Mb/s
Movie name : Old (2021)
Encoded date : UTC 2021-10-13 22:56:51
Writing application : mkvmerge v62.0.0 ('Apollo') 64-bit
Writing library : libebml v1.4.2 + libmatroska v1.6.4
IMDB : tt10954652
TMDB : movie/631843

Video
ID : 1
Format : AVC
Format/Info : Advanced Video Codec
Format profile : High@L4.1
Format settings : CABAC / 4 Ref Frames
Format settings, CABAC : Yes
Format settings, Reference frames : 4 frames
Codec ID : V_MPEG4/ISO/AVC
Duration : 1 h 48 min
Bit rate mode : Variable
Bit rate : 29.7 Mb/s
Maximum bit rate : 33.0 Mb/s
Width : 1 920 pixels
Height : 1 080 pixels
Display aspect ratio : 16:9
Frame rate mode : Constant
Frame rate : 23.976 (24000/1001) FPS
Color space : YUV
Chroma subsampling : 4:2:0
Bit depth : 8 bits
Scan type : Progressive
Bits/(Pixel*Frame) : 0.596
Stream size : 22.5 GiB (88%)
Title : MPEG-4 AVC Video / 29797 kbps / 1080p / 23.976 fps / 16:9 / High Profile 4.1
Language : English
Default : Yes
Forced : No

Audio #1
ID : 2
Format : MLP FBA 16-ch
Format/Info : Meridian Lossless Packing FBA with 16-channel presentation
Commercial name : Dolby TrueHD with Dolby Atmos
Codec ID : A_TRUEHD
Duration : 1 h 48 min
Bit rate mode : Variable
Bit rate : 3 411 kb/s
Maximum bit rate : 4 908 kb/s
Channel(s) : 8 channels
Channel layout : L R C LFE Ls Rs Lb Rb
Sampling rate : 48.0 kHz
Frame rate : 1 200.000 FPS (40 SPF)
Compression mode : Lossless
Stream size : 2.58 GiB (10%)
Title : Dolby TrueHD/Atmos Audio / 7.1 / 48 kHz / 3411 kbps / 16-bit
Language : English
Default : Yes
Forced : No
Number of dynamic objects : 11
Bed channel count : 1 channel
Bed channel configuration : LFE

Audio #2
ID : 3
Format : AC-3
Format/Info : Audio Coding 3
Commercial name : Dolby Digital
Codec ID : A_AC3
Duration : 1 h 48 min
Bit rate mode : Constant
Bit rate : 448 kb/s
Channel(s) : 6 channels
Channel layout : L R C LFE Ls Rs
Sampling rate : 48.0 kHz
Frame rate : 31.250 FPS (1536 SPF)
Compression mode : Lossy
Stream size : 348 MiB (1%)
Title : Compatibility Track / Dolby Digital Audio / 5.1 / 48 kHz / 448 kbps
Language : English
Service kind : Complete Main
Default : No
Forced : No

Text #1
ID : 4
Format : PGS
Codec ID : S_HDMV/PGS
Codec ID/Info : Picture based subtitle format used on BDs/HD-DVDs
Duration : 1 h 43 min
Bit rate : 40.7 kb/s
Count of elements : 2830
Stream size : 30.1 MiB (0%)
Title : SDH
Language : English
Default : No
Forced : No

Text #2
ID : 5
Format : PGS
Codec ID : S_HDMV/PGS
Codec ID/Info : Picture based subtitle format used on BDs/HD-DVDs
Duration : 1 h 47 min
Bit rate : 35.1 kb/s
Count of elements : 2486
Stream size : 27.0 MiB (0%)
Language : French
Default : No
Forced : No

Text #3
ID : 6
Format : PGS
Codec ID : S_HDMV/PGS
Codec ID/Info : Picture based subtitle format used on BDs/HD-DVDs
Duration : 1 h 47 min
Bit rate : 34.0 kb/s
Count of elements : 2599
Stream size : 26.2 MiB (0%)
Title : Latin American
Language : Spanish
Default : No
Forced : No

Menu
00:00:00.000 : en:Chapter 01
00:05:50.100 : en:Chapter 02
00:13:46.617 : en:Chapter 03
00:18:35.448 : en:Chapter 04
00:23:05.676 : en:Chapter 05
00:28:33.045 : en:Chapter 06
00:32:43.420 : en:Chapter 07
00:38:01.654 : en:Chapter 08
00:43:25.895 : en:Chapter 09
00:47:54.371 : en:Chapter 10
00:53:05.808 : en:Chapter 11
01:01:32.939 : en:Chapter 12
01:05:11.366 : en:Chapter 13
01:08:52.337 : en:Chapter 14
01:12:44.068 : en:Chapter 15
01:18:59.568 : en:Chapter 16
01:23:29.796 : en:Chapter 17
01:29:13.223 : en:Chapter 18
01:34:26.619 : en:Chapter 19
01:41:18.281 : en:Chapter 20

Readme

Password & My Message