Fast Download Mirrors

Old (2021) • Movie | 2160p.UHD.BluRay.REMUX.DV.HDR.HEVC.Atmos-TRiToN

Old 108min | Drama, Horror, Mystery, Thriller | July 23, 2021 (United States) Summary: A vacationing family discovers that the secluded beach where they're relaxing for a few hours is somehow causing them to age rapidly, reducing their entire lives into a single day.
Countries: United StatesLanguages: English

A group of families on a tropical holiday discover that the secluded beach where they are staying is somehow causing them to age rapidly – reducing their entire lives into a single day.

Mirrors: MultiUp, 1Fichier, Google Drive Index, GDTOT
Format: MKV
Credits: TRiToN

Download

General
Unique ID                                : 99863725323775463861935571541837723547 (0x4B210DCC1F5BE3E207D9F6FC42E7B79B)
Complete name                            : Old.2021.2160p.UHD.BluRay.REMUX.DV.HDR.HEVC.Atmos-TRiToN.mkv
Format                                   : Matroska
Format version                           : Version 4
File size                                : 64.7 GiB
Duration                                 : 1 h 48 min
Overall bit rate mode                    : Variable
Overall bit rate                         : 85.4 Mb/s
Movie name                               : Old (2021)
Encoded date                             : UTC 2021-10-19 05:39:11
Writing application                      : mkvmerge v62.0.0 ('Apollo') 64-bit
Writing library                          : libebml v1.4.2 + libmatroska v1.6.4
IMDB                                     : tt10954652
TMDB                                     : movie/631843

Video
ID                                       : 1
ID in the original source medium         : 4113 (0x1011)
Format                                   : HEVC
Format/Info                              : High Efficiency Video Coding
Format profile                           : Main 10@L5.1@High
HDR format                               : Dolby Vision, Version 1.0, dvhe.07.06, BL+EL+RPU, Blu-ray compatible / SMPTE ST 2086, HDR10 compatible
Codec ID                                 : V_MPEGH/ISO/HEVC
Duration                                 : 1 h 48 min
Bit rate                                 : 81.3 Mb/s
Width                                    : 3 840 pixels
Height                                   : 2 160 pixels
Display aspect ratio                     : 16:9
Frame rate mode                          : Constant
Frame rate                               : 23.976 (24000/1001) FPS
Color space                              : YUV
Chroma subsampling                       : 4:2:0 (Type 2)
Bit depth                                : 10 bits
Bits/(Pixel*Frame)                       : 0.409
Stream size                              : 61.6 GiB (95%)
Title                                    : MPEG-H HEVC Video / 5183 + 76129 kbps / 2160p / 23.976 fps / 16:9 / Main 10 @ Level 5.1 @ High / 10 bits / Dolby Vision + HDR10 / BT.2020
Language                                 : English
Default                                  : Yes
Forced                                   : No
Color range                              : Limited
Color primaries                          : BT.2020
Transfer characteristics                 : PQ
Matrix coefficients                      : BT.2020 non-constant
Mastering display color primaries        : Display P3
Mastering display luminance              : min: 0.0050 cd/m2, max: 4000 cd/m2
Maximum Content Light Level              : 392 cd/m2
Maximum Frame-Average Light Level        : 108 cd/m2
Original source medium                   : Blu-ray

Audio #1
ID                                       : 2
Format                                   : MLP FBA 16-ch
Format/Info                              : Meridian Lossless Packing FBA with 16-channel presentation
Commercial name                          : Dolby TrueHD with Dolby Atmos
Codec ID                                 : A_TRUEHD
Duration                                 : 1 h 48 min
Bit rate mode                            : Variable
Bit rate                                 : 3 411 kb/s
Maximum bit rate                         : 4 908 kb/s
Channel(s)                               : 8 channels
Channel layout                           : L R C LFE Ls Rs Lb Rb
Sampling rate                            : 48.0 kHz
Frame rate                               : 1 200.000 FPS (40 SPF)
Compression mode                         : Lossless
Stream size                              : 2.58 GiB (4%)
Title                                    : Dolby TrueHD/Atmos Audio / 7.1 / 48 kHz / 3411 kbps / 16-bit
Language                                 : English
Default                                  : Yes
Forced                                   : No
Number of dynamic objects                : 11
Bed channel count                        : 1 channel
Bed channel configuration                : LFE

Audio #2
ID                                       : 3
Format                                   : AC-3
Format/Info                              : Audio Coding 3
Commercial name                          : Dolby Digital
Codec ID                                 : A_AC3
Duration                                 : 1 h 48 min
Bit rate mode                            : Constant
Bit rate                                 : 448 kb/s
Channel(s)                               : 6 channels
Channel layout                           : L R C LFE Ls Rs
Sampling rate                            : 48.0 kHz
Frame rate                               : 31.250 FPS (1536 SPF)
Compression mode                         : Lossy
Stream size                              : 348 MiB (0%)
Title                                    : Compatibility Track / Dolby Digital Audio / 5.1 / 48 kHz / 448 kbps
Language                                 : English
Service kind                             : Complete Main
Default                                  : No
Forced                                   : No

Text #1
ID                                       : 4
Format                                   : PGS
Codec ID                                 : S_HDMV/PGS
Codec ID/Info                            : Picture based subtitle format used on BDs/HD-DVDs
Duration                                 : 1 h 43 min
Bit rate                                 : 40.7 kb/s
Count of elements                        : 2830
Stream size                              : 30.1 MiB (0%)
Title                                    : SDH
Language                                 : English
Default                                  : No
Forced                                   : No

Text #2
ID                                       : 5
Format                                   : PGS
Codec ID                                 : S_HDMV/PGS
Codec ID/Info                            : Picture based subtitle format used on BDs/HD-DVDs
Duration                                 : 1 h 47 min
Bit rate                                 : 35.1 kb/s
Count of elements                        : 2486
Stream size                              : 27.0 MiB (0%)
Language                                 : French
Default                                  : No
Forced                                   : No

Text #3
ID                                       : 6
Format                                   : PGS
Codec ID                                 : S_HDMV/PGS
Codec ID/Info                            : Picture based subtitle format used on BDs/HD-DVDs
Duration                                 : 1 h 47 min
Bit rate                                 : 34.0 kb/s
Count of elements                        : 2598
Stream size                              : 26.2 MiB (0%)
Title                                    : Latin American
Language                                 : Spanish
Default                                  : No
Forced                                   : No

Menu
00:00:00.000                             : en:Chapter 01
00:05:50.099                             : en:Chapter 02
00:13:46.617                             : en:Chapter 03
00:18:35.447                             : en:Chapter 04
00:23:05.675                             : en:Chapter 05
00:28:32.669                             : en:Chapter 06
00:32:43.419                             : en:Chapter 07
00:38:01.654                             : en:Chapter 08
00:43:25.728                             : en:Chapter 09
00:47:54.162                             : en:Chapter 10
00:53:05.640                             : en:Chapter 11
01:01:32.939                             : en:Chapter 12
01:05:11.365                             : en:Chapter 13
01:08:52.336                             : en:Chapter 14
01:12:43.901                             : en:Chapter 15
01:18:59.484                             : en:Chapter 16
01:23:29.796                             : en:Chapter 17
01:29:13.222                             : en:Chapter 18
01:34:26.285                             : en:Chapter 19
01:41:17.988                             : en:Chapter 20


Readme/Password

Password & My Message

Screenshots