Fast Download Mirrors

Old Henry (2021) • Movie | 1080p.BluRay.REMUX.AVC.DTS-HD.MA.5.1-TRiToN [24.1 GB]

Old Henry (2021)
Old Henry 99min | Western | October 1, 2021 (United States) Summary: An action western about a farmer who takes in an injured man with a satchel of cash. When a posse comes for the money, he must decide who to trust. Defending a siege, he reveals a gunslingin... Read all
Countries: United StatesLanguages: English

A widowed farmer and his son warily take in a mysterious, injured man with a satchel of cash. When a posse of men claiming to be the law come for the money, the farmer must decide who to trust. Defending a siege of his homestead, the farmer reveals a talent for gun-slinging that surprises everyone calling his true identity into question.

Mirrors: 1fichier, MultiUp, Gdrive[GDTOT, Sharer, GAdrive], Gdrive Index
Format: MKV
Credits: TRiToNN

Download

General
Complete name                            : Old.Henry.2021.1080p.BluRay.REMUX.AVC.DTS-HD.MA.5.1-TRiToN.mkv
Format                                   : Matroska
Format version                           : Version 4
File size                                : 24.1 GiB
Duration                                 : 1 h 38 min
Overall bit rate mode                    : Variable
Overall bit rate                         : 35.0 Mb/s
Movie name                               : Old Henry (2021)
Encoded date                             : UTC 2021-11-10 12:30:52
Writing application                      : mkvmerge v62.0.0 ('Apollo') 64-bit
Writing library                          : libebml v1.4.2 + libmatroska v1.6.4
IMDB                                     : tt12731980
TMDB                                     : movie/785663

Video
ID                                       : 1
Format                                   : AVC
Format/Info                              : Advanced Video Codec
Format profile                           : High@L4.1
Format settings                          : CABAC / 4 Ref Frames
Format settings, CABAC                   : Yes
Format settings, Reference frames        : 4 frames
Codec ID                                 : V_MPEG4/ISO/AVC
Duration                                 : 1 h 38 min
Bit rate mode                            : Constant
Bit rate                                 : 33.0 Mb/s
Width                                    : 1 920 pixels
Height                                   : 1 080 pixels
Display aspect ratio                     : 16:9
Frame rate mode                          : Constant
Frame rate                               : 23.976 (24000/1001) FPS
Color space                              : YUV
Chroma subsampling                       : 4:2:0
Bit depth                                : 8 bits
Scan type                                : Progressive
Bits/(Pixel*Frame)                       : 0.664
Stream size                              : 21.9 GiB (91%)
Title                                    : MPEG-4 AVC Video / 33000 kbps / 1080p / 23.976 fps / 16:9 / High Profile 4.1
Language                                 : zxx
Default                                  : Yes
Forced                                   : No

Audio
ID                                       : 2
Format                                   : DTS XLL
Format/Info                              : Digital Theater Systems
Commercial name                          : DTS-HD Master Audio
Codec ID                                 : A_DTS
Duration                                 : 1 h 38 min
Bit rate mode                            : Variable
Bit rate                                 : 3 200 kb/s
Channel(s)                               : 6 channels
Channel layout                           : C L R Ls Rs LFE
Sampling rate                            : 48.0 kHz
Frame rate                               : 93.750 FPS (512 SPF)
Bit depth                                : 24 bits
Compression mode                         : Lossless
Stream size                              : 2.20 GiB (9%)
Title                                    : DTS-HD Master Audio / 5.1 / 48 kHz / 3200 kbps / 24-bit
Language                                 : English
Default                                  : Yes
Forced                                   : No

Text
ID                                       : 3
Format                                   : PGS
Codec ID                                 : S_HDMV/PGS
Codec ID/Info                            : Picture based subtitle format used on BDs/HD-DVDs
Duration                                 : 1 h 38 min
Bit rate                                 : 25.0 kb/s
Count of elements                        : 1735
Stream size                              : 17.6 MiB (0%)
Title                                    : SDH
Language                                 : English
Default                                  : No
Forced                                   : No

Menu
00:00:00.000                             : en:Chapter 01
00:05:12.896                             : en:Chapter 02
00:12:22.700                             : en:Chapter 03
00:22:36.021                             : en:Chapter 04
00:28:13.483                             : en:Chapter 05
00:38:33.937                             : en:Chapter 06
00:48:34.495                             : en:Chapter 07
00:56:05.612                             : en:Chapter 08
01:04:53.640                             : en:Chapter 09
01:12:17.083                             : en:Chapter 10
01:18:21.614                             : en:Chapter 11
01:31:46.000                             : en:Chapter 12

Readme/Password

Password & My Message