Fast Download Mirrors

One Shot (2021) • Movie | 2160p.WEB-DL.x265.10bit.SDR.DD5.1-NOGRP [8.3GB]

One Shot (2021) • Movie
One Shot Action, Thriller | November 5, 2021 (United States) Summary: An elite squad of Navy SEAL's, on a covert mission to transport a prisoner off a CIA black site island prison, are trapped when insurgents attack while trying to rescue the same prisoner.
Countries: United KingdomLanguages: English

In an effort to prevent a terrorist attack on Washington D.C., an elite squad of Navy SEALs led by Lt. Jake Harris and a junior CIA analyst Zoe Anderson must retrieve a prisoner from a CIA black site island prison. Tensions flare as Deputy Site Manager Jack Yorke refuses to release the suspected terrorist based solely on Anderson’s intel, but when the base comes under attack by waves of insurgents they must band together to complete the mission.

Mirrors: MirrorAce, MultiUp, Gdrive[GDTOT, Sharer]
Format: MKV
Credits: -

Download

Video
ID : 1
Format : HEVC
Format/Info : High Efficiency Video Coding
Format profile : Main 10@L5@High
Codec ID : V_MPEGH/ISO/HEVC
Duration : 1 h 36 min
Bit rate : 12.0 Mb/s
Width : 3 836 pixels
Height : 1 920 pixels
Display aspect ratio : 1.998
Frame rate mode : Constant
Frame rate : 23.976 FPS
Color space : YUV
Chroma subsampling : 4:2:0
Bit depth : 10 bits
Bits/(Pixel*Frame) : 0.068
Stream size : 8.08 GiB (97%)
Default : Yes
Forced : No
Color range : Limited
Color primaries : BT.709
Transfer characteristics : BT.709
Matrix coefficients : BT.709

Audio
ID : 2
Format : AC-3
Format/Info : Audio Coding 3
Commercial name : Dolby Digital
Codec ID : A_AC3
Duration : 1 h 36 min
Bit rate mode : Constant
Bit rate : 384 kb/s
Channel(s) : 6 channels
Channel layout : L R C LFE Ls Rs
Sampling rate : 48.0 kHz
Frame rate : 31.250 FPS (1536 SPF)
Compression mode : Lossy
Stream size : 266 MiB (3%)
Title : English
Language : English
Service kind : Complete Main
Default : No
Forced : No

Text
ID : 3
Format : UTF-8
Codec ID : S_TEXT/UTF8
Codec ID/Info : UTF-8 Plain Text
Duration : 1 h 31 min
Bit rate : 46 b/s
Count of elements : 1089
Stream size : 31.1 KiB (0%)
Language : English
Default : Yes
Forced : No

Readme/Password

Password & My Message

Screenshots