Fast Download Mirrors

Only Murders in the Building (2021-) • TVSeries | S01.1080p.HULU.WEB-DL.DDP5.1.H.264-FLUX

Only Murders in the Building (2021)
Only Murders in the Building Comedy, Crime, Drama, Mystery, Thriller | August 31, 2021 (United States) Summary: Three strangers who share an obsession with true crime suddenly find themselves caught up in one.
Countries: United StatesLanguages: English, American Sign Language

Three strangers who share an obsession with true crime suddenly find themselves caught up in one.

Mirrors: MirrorAce, MultiUp, Gdrive[GDTOT, Sharer], Gdrive Index
Format: MKV 
Season-1 Complete
Credits: FLUX

Download


Only.Murders.in.the.Building.S01E01.True.Crime.1080p.HULU.WEB-DL.DDP5.1.H.264-FLUX.mkv - 1.11 GB
Only.Murders.in.the.Building.S01E02.Who.Is.Tim.Kono.1080p.HULU.WEB-DL.DDP5.1.H.264-FLUX.mkv - 1.01 GB
Only.Murders.in.the.Building.S01E03.How.Well.Do.You.Know.Your.Neighbors.1080p.HULU.WEB-DL.DDP5.1.H.264-FLUX.mkv - 1.15 GB
Only.Murders.in.the.Building.S01E04.The.Sting.1080p.HULU.WEB-DL.DDP5.1.H.264-FLUX.mkv - 1.06 GB
Only.Murders.in.the.Building.S01E05.Twist.1080p.HULU.WEB-DL.DDP5.1.H.264-FLUX.mkv - 1.04 GB
Only.Murders.in.the.Building.S01E06.To.Protect.and.Serve.1080p.HULU.WEB-DL.DDP5.1.H.264-FLUX.mkv - 951.73 MB
Only.Murders.in.the.Building.S01E07.The.Boy.from.6B.1080p.HULU.WEB-DL.DDP5.1.H.264-FLUX.mkv - 929.49 MB
Only.Murders.in.the.Building.S01E08.Fan.Fiction.1080p.HULU.WEB-DL.DDP5.1.H.264-FLUX.mkv - 785.44 MB
Only.Murders.in.the.Building.S01E10.Open.and.Shut.1080p.HULU.WEB-DL.DDP5.1.H.264-FLUX.mkv - 1.06 GB
Only.Murders.in.the.Building.S01E09.Double.Time.1080p.HULU.WEB-DL.DDP5.1.H.264-FLUX.mkv - 1.1 GB

[Single Folder][Gdrive]
https://official12.the-ambassador1.workers.dev/0:/Only%20Murders%20in%20the%20Building/


https://multiup.org/de5eab1ceeac67676e21af77d6cfaa94
https://multiup.org/fb2582d3f2003e953839da150288df24
https://multiup.org/816120a5aed60d9b15de0cb3e91ab649
https://multiup.org/d8fc5765e9cc77986b775d7c319995a5
https://multiup.org/bbf2d6d879c62b1135f6238934e3a377
https://multiup.org/73d8b697d8ef1d8753b04d018545cec1
https://multiup.org/1265c9b5f0da7641efd39f05368a7f58
https://multiup.org/451f9469201bbb8c9dcbc6bad309e705
https://multiup.org/0276940c20459431abb8d323acea8e0c
https://multiup.org/c4b8c58f90e3b18f23dfa25fa48101c9

https://new.gdtot.org/file/1194856912
https://new.gdtot.org/file/1080541209
https://new.gdtot.org/file/1238098234
https://new.gdtot.org/file/1135311079
https://new.gdtot.org/file/1112607695
https://new.gdtot.org/file/997964428
https://new.gdtot.org/file/974639888
https://new.gdtot.org/file/823592457
https://new.gdtot.org/file/1178339793
https://new.gdtot.org/file/1134992622

https://sharer.pw/file/wU8dXx3rCIwA
https://sharer.pw/file/sCX8xR9Frogi
https://sharer.pw/file/43-wg7juG6AW
https://sharer.pw/file/pHaIdXryjoru
https://sharer.pw/file/uXY_TMJ4guHa
https://sharer.pw/file/T-ZqgKLhPPvp
https://sharer.pw/file/bTKm0cpE3U1L
https://sharer.pw/file/G9XK1dzyfXXy
https://sharer.pw/file/zoNckyLSJowm
https://sharer.pw/file/pQgdqvTH3Tmm

https://mirrorace.org/m/35v16		
https://mirrorace.org/m/35v17		
https://mirrorace.org/m/35v18		
https://mirrorace.org/m/35v19
https://mirrorace.org/m/3Lwpm
https://mirrorace.org/m/3Lwpp
Video
ID : 1
Format : AVC
Format/Info : Advanced Video Codec
Format profile : High@L4
Format settings : CABAC / 4 Ref Frames
Format settings, CABAC : Yes
Format settings, Reference frames : 4 frames
Codec ID : V_MPEG4/ISO/AVC
Duration : 30 min 53 s
Bit rate : 3 297 kb/s
Width : 1 920 pixels
Height : 1 080 pixels
Display aspect ratio : 16:9
Frame rate mode : Constant
Frame rate : 23.976 (24000/1001) FPS
Color space : YUV
Chroma subsampling : 4:2:0
Bit depth : 8 bits
Scan type : Progressive
Bits/(Pixel*Frame) : 0.066
Stream size : 728 MiB (93%)
Default : Yes
Forced : No

Audio
ID : 2
Format : E-AC-3
Format/Info : Enhanced AC-3
Commercial name : Dolby Digital Plus
Codec ID : A_EAC3
Duration : 30 min 53 s
Bit rate mode : Constant
Bit rate : 256 kb/s
Channel(s) : 6 channels
Channel layout : L R C LFE Ls Rs
Sampling rate : 48.0 kHz
Frame rate : 31.250 FPS (1536 SPF)
Compression mode : Lossy
Stream size : 56.6 MiB (7%)
Language : English
Service kind : Complete Main
Default : Yes
Forced : No

Text #1
ID : 3
Format : UTF-8
Codec ID : S_TEXT/UTF8
Codec ID/Info : UTF-8 Plain Text
Duration : 29 min 50 s
Bit rate : 98 b/s
Count of elements : 594
Stream size : 21.5 KiB (0%)
Language : English
Default : No
Forced : No

Text #2
ID : 4
Format : UTF-8
Codec ID : S_TEXT/UTF8
Codec ID/Info : UTF-8 Plain Text
Duration : 30 min 47 s
Bit rate : 106 b/s
Count of elements : 676
Stream size : 24.0 KiB (0%)
Title : SDH
Language : English
Default : No
Forced : No

Text #3
ID : 5
Format : UTF-8
Codec ID : S_TEXT/UTF8
Codec ID/Info : UTF-8 Plain Text
Duration : 30 min 48 s
Bit rate : 115 b/s
Count of elements : 674
Stream size : 26.1 KiB (0%)
Title : SDH
Language : Spanish
Default : No
Forced : No

Menu
00:03:14.000 : Chapter 1
00:12:51.000 : Chapter 2
00:23:39.000 : Chapter 3
00:29:54.000 : Chapter 4 - Credits

Readme

Password & My Message