Fast Download Mirrors

Outlier (2021) • Movie | 2160p.WEB-DL.x265.10bit.SDR.DD5.1-NOGRP [7GB]

Outlier (2021) • Movie
Outlier 80min | Thriller | November 2, 2021 (United States) Summary: Olivia Davis escapes her abuser with the help of a kind stranger, but his intentions are not yet clear to her. She must figure out the situation and escape her nightmare.
Countries: United StatesLanguages: English

After a public scene was caused by her abusive boyfriend, James (Logan Fleisher), Olivia Davis (Jessica Strayer) flees the relationship with the help of a kind stranger, Thomas (Thomas Cheslek). Fearing for her safety from James, Olivia stays with Thomas for a while. Meanwhile, Thomas is working on a mystery project that Olivia only gets glimpses of. Not trusting herself and being eaten up by past trauma, she decides it’s time to leave. Fearing for her safety out there on her own, Thomas is forced to confront and take action to keep Olivia safe. She is now forced to take action, find out what is going on, and escape her trauma.

Mirrors: MirrorAce, MultiUp, Gdrive[GDTOT, Sharer]
Format: MKV
Credits: -

Download

Video
ID : 1
Format : HEVC
Format/Info : High Efficiency Video Coding
Format profile : Main 10@L5@High
Codec ID : V_MPEGH/ISO/HEVC
Duration : 1 h 20 min
Bit rate : 12.0 Mb/s
Width : 3 840 pixels
Height : 1 600 pixels
Display aspect ratio : 2.40:1
Frame rate mode : Constant
Frame rate : 23.976 FPS
Color space : YUV
Chroma subsampling : 4:2:0
Bit depth : 10 bits
Bits/(Pixel*Frame) : 0.081
Stream size : 6.76 GiB (97%)
Default : Yes
Forced : No
Color range : Limited
Color primaries : BT.709
Transfer characteristics : BT.709
Matrix coefficients : BT.709

Audio
ID : 2
Format : AC-3
Format/Info : Audio Coding 3
Commercial name : Dolby Digital
Codec ID : A_AC3
Duration : 1 h 20 min
Bit rate mode : Constant
Bit rate : 384 kb/s
Channel(s) : 6 channels
Channel layout : L R C LFE Ls Rs
Sampling rate : 48.0 kHz
Frame rate : 31.250 FPS (1536 SPF)
Compression mode : Lossy
Stream size : 221 MiB (3%)
Title : English
Language : English
Service kind : Complete Main
Default : No
Forced : No

Text
ID : 3
Format : UTF-8
Codec ID : S_TEXT/UTF8
Codec ID/Info : UTF-8 Plain Text
Duration : 1 h 14 min
Bit rate : 38 b/s
Count of elements : 644
Stream size : 21.2 KiB (0%)
Language : English
Default : Yes
Forced : No

Readme/Password

Password & My Message

Screenshots