Fast Download Mirrors

Parks and Recreation (2009-2015) • TVSeries | S01-S07.BluRay.1080p.DTS-HD.MA.5.1.AVC.REMUX-FraMeSToR [521.97 GB]

Parks and Recreation Comedy | April 9, 2009 (United States) Summary: The absurd antics of an Indiana town's public officials as they pursue sundry projects to make their city a better place.
Countries: United StatesLanguages: English

Hilarious ensemble comedy that follows Leslie Knope, a mid-level bureaucrat in the Parks and Recreation Department of Pawnee, Indiana, and her tireless efforts to make her quintessentially American town just a little bit more fun.

Mirrors: GDrive Index 
Format: MKV
Credits: FraMeSToR
Seasons: 1-7 Complete

Download

General
Unique ID                                : 104232675161703150124709125989007670553 (0x4E6A7BA7B4EA5D5B32237A5BC0FCBD19)
Complete name                            : Parks.and.Recreation.S01E01.Make.My.Pit.a.Park.1080p.DTS-HD.MA.5.1.AVC.REMUX-FraMeSToR.mkv
Format                                   : Matroska
Format version                           : Version 4
File size                                : 4.37 GiB
Duration                                 : 21 min 35 s
Overall bit rate mode                    : Variable
Overall bit rate                         : 29.0 Mb/s
Movie name                               : Parks and Recreation (S01E01) Make My Pit a Park
Encoded date                             : UTC 2021-06-19 20:25:52
Writing application                      : mkvmerge v53.0.0 ('Fool's Gold') 64-bit
Writing library                          : libebml v1.4.1 + libmatroska v1.6.2
IMDB                                     : tt1266020
TMDB                                     : tv/8592
TVDB                                     : 84912

Video
ID                                       : 1
Format                                   : AVC
Format/Info                              : Advanced Video Codec
Format profile                           : High@L4.1
Format settings                          : CABAC / 2 Ref Frames
Format settings, CABAC                   : Yes
Format settings, Reference frames        : 2 frames
Format settings, GOP                     : M=1, N=5
Codec ID                                 : V_MPEG4/ISO/AVC
Duration                                 : 21 min 35 s
Bit rate mode                            : Variable
Bit rate                                 : 25.1 Mb/s
Maximum bit rate                         : 38.2 Mb/s
Width                                    : 1 920 pixels
Height                                   : 1 080 pixels
Display aspect ratio                     : 16:9
Frame rate mode                          : Constant
Frame rate                               : 23.976 (24000/1001) FPS
Color space                              : YUV
Chroma subsampling                       : 4:2:0
Bit depth                                : 8 bits
Scan type                                : Progressive
Bits/(Pixel*Frame)                       : 0.506
Stream size                              : 3.79 GiB (87%)
Default                                  : Yes
Forced                                   : No

Audio #1
ID                                       : 2
Format                                   : DTS XLL
Format/Info                              : Digital Theater Systems
Commercial name                          : DTS-HD Master Audio
Codec ID                                 : A_DTS
Duration                                 : 21 min 35 s
Bit rate mode                            : Variable
Bit rate                                 : 3 594 kb/s
Channel(s)                               : 6 channels
Channel layout                           : C L R Ls Rs LFE
Sampling rate                            : 48.0 kHz
Frame rate                               : 93.750 FPS (512 SPF)
Bit depth                                : 24 bits
Compression mode                         : Lossless
Stream size                              : 555 MiB (12%)
Title                                    : DTS-HD MA 5.1
Language                                 : English
Default                                  : Yes
Forced                                   : No

Audio #2
ID                                       : 3
Format                                   : AC-3
Format/Info                              : Audio Coding 3
Commercial name                          : Dolby Digital
Codec ID                                 : A_AC3
Duration                                 : 21 min 35 s
Bit rate mode                            : Constant
Bit rate                                 : 192 kb/s
Channel(s)                               : 2 channels
Channel layout                           : L R
Sampling rate                            : 48.0 kHz
Frame rate                               : 31.250 FPS (1536 SPF)
Compression mode                         : Lossy
Stream size                              : 29.7 MiB (1%)
Title                                    : Commentary with series co-creators/writers Greg Daniels & Michael Schur, and actress Rashida Jones
Language                                 : English
Service kind                             : Complete Main
Default                                  : No
Forced                                   : No

Text
ID                                       : 4
Format                                   : PGS
Codec ID                                 : S_HDMV/PGS
Codec ID/Info                            : Picture based subtitle format used on BDs/HD-DVDs
Duration                                 : 20 min 49 s
Bit rate                                 : 69.6 kb/s
Count of elements                        : 896
Stream size                              : 10.4 MiB (0%)
Title                                    : English (SDH)
Language                                 : English
Default                                  : No
Forced                                   : No

Menu
00:00:00.000                             : en:Chapter 1
00:07:03.882                             : en:Chapter 2
00:16:29.363                             : en:Chapter 3
00:20:31.313                             : en:Chapter 4
00:20:55.629                             : en:Chapter 5

Readme/Password

Password & My Message