Fast Download Mirrors

Peaky Blinders • TVSeries | S06E01.Black.Day.1080p/2160p.iP.WEB-DL.AAC2.0.H.264/HLG.H.265-FLUX [1.11 GB/7.56 GB]

Peaky Blinders Crime, Drama | September 30, 2014 (United States) Summary: A gangster family epic set in 1900s England, centering on a gang who sew razor blades in the peaks of their caps, and their fierce boss Tommy Shelby.
Countries: United KingdomLanguages: English, Romanian, Irish Gaelic, Italian, Yiddish

A gangster family epic set in 1919 Birmingham, England and centered on a gang who sew razor blades in the peaks of their caps, and their fierce boss Tommy Shelby, who means to move up in the world.

Mirrors: GDrive [Gadrive, GDToT, Index, Sharer], MultiUp
Format: MKV
Credits: FLUX
Seasons: 1 Ongoing

Download

General
Unique ID : 278002511575750990224039166107041137849 (0xD125560EF73DDEFC5D4DC6C7D5AC04B9)
Complete name : Peaky.Blinders.S06E01.Black.Day.1080p.iP.WEB-DL.AAC2.0.H.264-FLUX.mkv
Format : Matroska
Format version : Version 4
File size : 1.11 GiB
Duration : 58 min 0 s
Overall bit rate mode : Variable
Overall bit rate : 2 742 kb/s
Movie name : Peaky Blinders - S06E01 - Black Day
Encoded date : UTC 2022-02-27 20:58:28
Writing application : mkvmerge v65.0.0 ('Too Much') 64-bit
Writing library : libebml v1.4.2 + libmatroska v1.6.4
IMDB : tt2442560
TMDB : tv/60574

Video
ID : 1
Format : AVC
Format/Info : Advanced Video Codec
Format profile : High@L4.2
Format settings : CABAC / 4 Ref Frames
Format settings, CABAC : Yes
Format settings, Reference frames : 4 frames
Codec ID : V_MPEG4/ISO/AVC
Duration : 58 min 0 s
Bit rate mode : Variable
Bit rate : 2 549 kb/s
Maximum bit rate : 12.0 Mb/s
Width : 1 920 pixels
Height : 1 080 pixels
Display aspect ratio : 16:9
Frame rate mode : Constant
Frame rate : 50.000 FPS
Color space : YUV
Chroma subsampling : 4:2:0
Bit depth : 8 bits
Scan type : Progressive
Bits/(Pixel*Frame) : 0.025
Stream size : 1.03 GiB (93%)
Default : No
Forced : No
Color range : Limited
Color primaries : BT.709
Transfer characteristics : BT.709
Matrix coefficients : BT.709

Audio
ID : 2
Format : AAC LC
Format/Info : Advanced Audio Codec Low Complexity
Codec ID : A_AAC-2
Duration : 58 min 0 s
Bit rate : 192 kb/s
Channel(s) : 2 channels
Channel layout : L R
Sampling rate : 48.0 kHz
Frame rate : 46.875 FPS (1024 SPF)
Compression mode : Lossy
Stream size : 78.6 MiB (7%)
Language : English
Default : No
Forced : No

Text #1
ID : 3
Format : UTF-8
Codec ID : S_TEXT/UTF8
Codec ID/Info : UTF-8 Plain Text
Duration : 57 min 6 s
Bit rate : 53 b/s
Count of elements : 693
Stream size : 22.3 KiB (0%)
Language : English
Default : No
Forced : No

Text #2
ID : 4
Format : UTF-8
Codec ID : S_TEXT/UTF8
Codec ID/Info : UTF-8 Plain Text
Duration : 57 min 10 s
Bit rate : 53 b/s
Count of elements : 702
Stream size : 22.5 KiB (0%)
Title : SDH
Language : English
Default : No
Forced : No

General
Unique ID : 147300917671694771771592989642429116057 (0x6ED11FF411EF9494F0623CC48C852E99)
Complete name : Peaky.Blinders.S06E01.Black.Day.2160p.iP.WEB-DL.AAC2.0.HLG.H.265-FLUX.mkv
Format : Matroska
Format version : Version 4
File size : 7.56 GiB
Duration : 58 min 0 s
Overall bit rate : 18.7 Mb/s
Movie name : Peaky Blinders - S06E01 - Black Day
Encoded date : UTC 2022-02-27 21:10:59
Writing application : mkvmerge v65.0.0 ('Too Much') 64-bit
Writing library : libebml v1.4.2 + libmatroska v1.6.4
IMDB : tt2442560
TMDB : tv/60574

Video
ID : 1
Format : HEVC
Format/Info : High Efficiency Video Coding
Format profile : Main 10@L5.1@Main
Codec ID : V_MPEGH/ISO/HEVC
Duration : 58 min 0 s
Bit rate : 18.5 Mb/s
Width : 3 840 pixels
Height : 2 160 pixels
Display aspect ratio : 16:9
Frame rate mode : Constant
Frame rate : 25.000 FPS
Standard : Component
Color space : YUV
Chroma subsampling : 4:2:0
Bit depth : 10 bits
Bits/(Pixel*Frame) : 0.089
Stream size : 7.48 GiB (99%)
Default : No
Forced : No
Color range : Limited
Color primaries : BT.2020
Transfer characteristics : BT.2020 (10-bit)
transfer_characteristics_Original : HLG / BT.2020 (10-bit)
Matrix coefficients : BT.2020 non-constant

Audio
ID : 2
Format : AAC LC
Format/Info : Advanced Audio Codec Low Complexity
Codec ID : A_AAC-2
Duration : 58 min 0 s
Bit rate : 192 kb/s
Channel(s) : 2 channels
Channel layout : L R
Sampling rate : 48.0 kHz
Frame rate : 46.875 FPS (1024 SPF)
Compression mode : Lossy
Stream size : 78.6 MiB (1%)
Language : English
Default : No
Forced : No

Text #1
ID : 3
Format : UTF-8
Codec ID : S_TEXT/UTF8
Codec ID/Info : UTF-8 Plain Text
Duration : 57 min 6 s
Bit rate : 53 b/s
Count of elements : 693
Stream size : 22.3 KiB (0%)
Language : English
Default : No
Forced : No

Text #2
ID : 4
Format : UTF-8
Codec ID : S_TEXT/UTF8
Codec ID/Info : UTF-8 Plain Text
Duration : 57 min 10 s
Bit rate : 53 b/s
Count of elements : 702
Stream size : 22.5 KiB (0%)
Title : SDH
Language : English
Default : No
Forced : No

Readme/Password

Password & My Message