Fast Download Mirrors

Pretty Smart (2021-) • TVSeries | S01.1080p.Web.DDP5.1.HEVC.x265-JoeBee

Pretty Smart (2021) • TVSeries
Pretty Smart 1800min | Comedy, Drama, Romance | October 8, 2021 (United States) Summary: A self-proclaimed intellectual, forced to move in with her carefree sister and her sister's lovably eccentric friends.
Countries: United StatesLanguages: English

A self-proclaimed intellectual, forced to move in with her carefree sister and her sister’s lovably eccentric friends.

Mirrors: MirrorAce, MultiUp, Gdrive[GDTOT, Sharer]
Format: MKV
Credits: JoeBee
Season-1 Complete

Download – [Single File]

Pretty.Smart.S01.1080p.Web.DDP5.1.HEVC.x265-JoeBee


Complete name                            : Pretty.Smart.S01E01.Guess.what.Claires.sister.is.coming.1080p.Web.HEVC.x265-JoeBee.mkv
Format                                   : Matroska
Format version                           : Version 4
File size                                : 332 MiB
Duration                                 : 23 min 20 s
Overall bit rate                         : 1 989 kb/s
Encoded date                             : UTC 2021-10-09 17:43:18
Writing application                      : Lavf58.29.100
Writing library                          : Lavf58.29.100
ErrorDetectionType                       : Per level 1

Video
ID                                       : 1
Format                                   : HEVC
Format/Info                              : High Efficiency Video Coding
Format profile                           : Main@L4@Main
Codec ID                                 : V_MPEGH/ISO/HEVC
Duration                                 : 23 min 17 s
Bit rate                                 : 1 309 kb/s
Width                                    : 1 920 pixels
Height                                   : 1 080 pixels
Display aspect ratio                     : 16:9
Frame rate mode                          : Constant
Frame rate                               : 23.976 (24000/1001) FPS
Color space                              : YUV
Chroma subsampling                       : 4:2:0
Bit depth                                : 8 bits
Bits/(Pixel*Frame)                       : 0.026
Stream size                              : 218 MiB (66%)
Default                                  : Yes
Forced                                   : No
Color range                              : Limited
Color primaries                          : BT.709
Transfer characteristics                 : BT.709
Matrix coefficients                      : BT.709

Audio
ID                                       : 2
Format                                   : E-AC-3
Format/Info                              : Enhanced AC-3
Commercial name                          : Dolby Digital Plus
Codec ID                                 : A_EAC3
Duration                                 : 23 min 20 s
Bit rate mode                            : Constant
Bit rate                                 : 640 kb/s
Channel(s)                               : 6 channels
Channel layout                           : L R C LFE Ls Rs
Sampling rate                            : 48.0 kHz
Frame rate                               : 31.250 FPS (1536 SPF)
Compression mode                         : Lossy
Stream size                              : 107 MiB (32%)
Title                                    : Surround
Language                                 : English
Service kind                             : Complete Main
Default                                  : Yes
Forced                                   : No

Text #1
ID                                       : 3
Format                                   : ASS
Codec ID                                 : S_TEXT/ASS
Codec ID/Info                            : Advanced Sub Station Alpha
Duration                                 : 21 min 27 s
Compression mode                         : Lossless
Language                                 : English
Default                                  : No
Forced                                   : No

Text #2
ID                                       : 4
Format                                   : ASS
Codec ID                                 : S_TEXT/ASS
Codec ID/Info                            : Advanced Sub Station Alpha
Duration                                 : 21 min 37 s
Compression mode                         : Lossless
Title                                    : SDH
Language                                 : English
Default                                  : No
Forced                                   : No

Readme

Password & My Message

Screenshots
Screenshot