Fast Download Mirrors

Real Steel (2011) • Movie | BluRay.REMUX – FraMeSToR

Real Steel (2011) • Movie | BluRay.REMUX - FraMeSToR
Real Steel 127min | Action, Drama, Sci-Fi, Sport | October 7, 2011 (United States) Summary: In the near future, robot boxing is a top sport. A struggling ex-boxer feels he's found a champion in a discarded robot.
Countries: United States, IndiaLanguages: English, Ukrainian

In the near future, robot boxing is a top sport. A struggling ex-boxer feels he’s found a champion in a discarded robot.

Mirrors: 1fichier, MultiUp, Gdrive[GDTOT, Sharer], Gdrive Index
Format: MKV
Credits: FraMeSToR

Download

General
Unique ID : 305769371911192995201831707489852759150 (0xE60909F83C4F27FDC74A7D37FF189C6E)
Complete name : Real.Steel.2011.BluRay.1080p.DTS-HD.MA.7.1.AVC.REMUX-FraMeSToR.mkv
Format : Matroska
Format version : Version 4 / Version 2
File size : 26.8 GiB
Duration : 2 h 6 min
Overall bit rate mode : Variable
Overall bit rate : 30.3 Mb/s
Movie name : Real Steel (2011)
Encoded date : UTC 2020-07-27 00:58:27
Writing application : mkvmerge v38.0.0 ('The Silent Type') 64-bit
Writing library : libebml v1.3.9 + libmatroska v1.5.2
IMDB : tt0433035
TMDB : movie/39254

Video
ID : 1
Format : AVC
Format/Info : Advanced Video Codec
Format profile : High@L4.1
Format settings : CABAC / 4 Ref Frames
Format settings, CABAC : Yes
Format settings, ReFrames : 4 frames
Codec ID : V_MPEG4/ISO/AVC
Duration : 2 h 6 min
Bit rate mode : Variable
Bit rate : 22.1 Mb/s
Maximum bit rate : 37.0 Mb/s
Width : 1 920 pixels
Height : 1 080 pixels
Display aspect ratio : 16:9
Frame rate mode : Constant
Frame rate : 23.976 (24000/1001) FPS
Color space : YUV
Chroma subsampling : 4:2:0
Bit depth : 8 bits
Scan type : Progressive
Bits/(Pixel*Frame) : 0.445
Stream size : 19.6 GiB (73%)
Default : Yes
Forced : No

Audio #1
ID : 2
Format : DTS
Format/Info : Digital Theater Systems
Format profile : MA / Core
Codec ID : A_DTS
Duration : 2 h 6 min
Bit rate mode : Variable / Constant
Bit rate : 6 065 kb/s / 1 509 kb/s
Channel(s) : 8 channels / 6 channels
Channel positions : Front: L C R, Side: L R, Back: L R, LFE / Front: L C R, Side: L R, LFE
Sampling rate : 48.0 kHz
Frame rate : 93.750 FPS (512 SPF)
Bit depth : 24 bits
Compression mode : Lossless / Lossy
Stream size : 5.37 GiB (20%)
Title : DTS-HD MA 7.1
Language : English
Default : Yes
Forced : No

Audio #2
ID : 3
Format : AC-3
Format/Info : Audio Coding 3
Codec ID : A_AC3
Duration : 2 h 6 min
Bit rate mode : Constant
Bit rate : 192 kb/s
Channel(s) : 2 channels
Channel positions : Front: L R
Sampling rate : 48.0 kHz
Frame rate : 31.250 FPS (1536 SPF)
Bit depth : 16 bits
Compression mode : Lossy
Stream size : 174 MiB (1%)
Title : Commentary with director Shawn Levy
Language : English
Service kind : Complete Main
Default : No
Forced : No

Text #1
ID : 4
Format : PGS
Codec ID : S_HDMV/PGS
Codec ID/Info : Picture based subtitle format used on BDs/HD-DVDs
Duration : 2 h 0 min
Bit rate : 37.8 kb/s
Count of elements : 2974
Stream size : 32.6 MiB (0%)
Title : English
Language : English
Default : No
Forced : No

Text #2
ID : 5
Format : PGS
Codec ID : S_HDMV/PGS
Codec ID/Info : Picture based subtitle format used on BDs/HD-DVDs
Duration : 2 h 0 min
Bit rate : 42.9 kb/s
Count of elements : 3574
Stream size : 37.1 MiB (0%)
Title : English (SDH)
Language : English
Default : No
Forced : No

Text #3
ID : 6
Format : PGS
Codec ID : S_HDMV/PGS
Codec ID/Info : Picture based subtitle format used on BDs/HD-DVDs
Duration : 2 h 1 min
Bit rate : 20.3 kb/s
Count of elements : 2962
Stream size : 17.6 MiB (0%)
Title : Arabic
Language : Arabic
Default : No
Forced : No

Text #4
ID : 7
Format : PGS
Codec ID : S_HDMV/PGS
Codec ID/Info : Picture based subtitle format used on BDs/HD-DVDs
Duration : 1 h 59 min
Bit rate : 34.7 kb/s
Count of elements : 2972
Stream size : 29.7 MiB (0%)
Title : Bulgarian
Language : Bulgarian
Default : No
Forced : No

Text #5
ID : 8
Format : PGS
Codec ID : S_HDMV/PGS
Codec ID/Info : Picture based subtitle format used on BDs/HD-DVDs
Duration : 2 h 0 min
Bit rate : 31.9 kb/s
Count of elements : 2846
Stream size : 27.5 MiB (0%)
Title : Danish
Language : Danish
Default : No
Forced : No

Text #6
ID : 9
Format : PGS
Codec ID : S_HDMV/PGS
Codec ID/Info : Picture based subtitle format used on BDs/HD-DVDs
Duration : 1 h 59 min
Bit rate : 29.3 kb/s
Count of elements : 2408
Stream size : 25.1 MiB (0%)
Title : Dutch
Language : Dutch
Default : No
Forced : No

Text #7
ID : 10
Format : PGS
Codec ID : S_HDMV/PGS
Codec ID/Info : Picture based subtitle format used on BDs/HD-DVDs
Duration : 1 h 59 min
Bit rate : 31.0 kb/s
Count of elements : 2904
Stream size : 26.6 MiB (0%)
Title : Estonian
Language : Estonian
Default : No
Forced : No

Text #8
ID : 11
Format : PGS
Codec ID : S_HDMV/PGS
Codec ID/Info : Picture based subtitle format used on BDs/HD-DVDs
Duration : 1 h 59 min
Bit rate : 34.3 kb/s
Count of elements : 2966
Stream size : 29.4 MiB (0%)
Title : Finnish
Language : Finnish
Default : No
Forced : No

Text #9
ID : 12
Format : PGS
Codec ID : S_HDMV/PGS
Codec ID/Info : Picture based subtitle format used on BDs/HD-DVDs
Duration : 2 h 0 min
Bit rate : 29.4 kb/s
Count of elements : 2826
Stream size : 25.5 MiB (0%)
Title : French
Language : French
Default : No
Forced : No

Text #10
ID : 13
Format : PGS
Codec ID : S_HDMV/PGS
Codec ID/Info : Picture based subtitle format used on BDs/HD-DVDs
Duration : 1 h 59 min
Bit rate : 29.9 kb/s
Count of elements : 2636
Stream size : 25.6 MiB (0%)
Title : German
Language : German
Default : No
Forced : No

Text #11
ID : 14
Format : PGS
Codec ID : S_HDMV/PGS
Codec ID/Info : Picture based subtitle format used on BDs/HD-DVDs
Duration : 2 h 0 min
Bit rate : 33.7 kb/s
Count of elements : 2948
Stream size : 29.1 MiB (0%)
Title : Icelandic
Language : Icelandic
Default : No
Forced : No

Text #12
ID : 15
Format : PGS
Codec ID : S_HDMV/PGS
Codec ID/Info : Picture based subtitle format used on BDs/HD-DVDs
Duration : 2 h 0 min
Bit rate : 37.8 kb/s
Count of elements : 3004
Stream size : 32.6 MiB (0%)
Title : Indonesian
Language : Indonesian
Default : No
Forced : No

Text #13
ID : 16
Format : PGS
Codec ID : S_HDMV/PGS
Codec ID/Info : Picture based subtitle format used on BDs/HD-DVDs
Duration : 1 h 59 min
Bit rate : 35.5 kb/s
Count of elements : 2922
Stream size : 30.3 MiB (0%)
Title : Italian
Language : Italian
Default : No
Forced : No

Text #14
ID : 17
Format : PGS
Codec ID : S_HDMV/PGS
Codec ID/Info : Picture based subtitle format used on BDs/HD-DVDs
Duration : 2 h 0 min
Bit rate : 27.6 kb/s
Count of elements : 2950
Stream size : 23.9 MiB (0%)
Title : Korean
Language : Korean
Default : No
Forced : No

Text #15
ID : 18
Format : PGS
Codec ID : S_HDMV/PGS
Codec ID/Info : Picture based subtitle format used on BDs/HD-DVDs
Duration : 2 h 5 min
Bit rate : 27.1 kb/s
Count of elements : 2920
Stream size : 24.3 MiB (0%)
Title : Latvian
Language : Latvian
Default : No
Forced : No

Text #16
ID : 19
Format : PGS
Codec ID : S_HDMV/PGS
Codec ID/Info : Picture based subtitle format used on BDs/HD-DVDs
Duration : 1 h 59 min
Bit rate : 32.8 kb/s
Count of elements : 2948
Stream size : 28.1 MiB (0%)
Title : Lithuanian
Language : Lithuanian
Default : No
Forced : No

Text #17
ID : 20
Format : PGS
Codec ID : S_HDMV/PGS
Codec ID/Info : Picture based subtitle format used on BDs/HD-DVDs
Duration : 2 h 0 min
Bit rate : 41.9 kb/s
Count of elements : 2934
Stream size : 36.1 MiB (0%)
Title : Malay
Language : Malay
Default : No
Forced : No

Text #18
ID : 21
Format : PGS
Codec ID : S_HDMV/PGS
Codec ID/Info : Picture based subtitle format used on BDs/HD-DVDs
Duration : 2 h 0 min
Bit rate : 30.2 kb/s
Count of elements : 2824
Stream size : 26.1 MiB (0%)
Title : Norwegian
Language : Norwegian
Default : No
Forced : No

Text #19
ID : 22
Format : PGS
Codec ID : S_HDMV/PGS
Codec ID/Info : Picture based subtitle format used on BDs/HD-DVDs
Duration : 2 h 5 min
Bit rate : 34.6 kb/s
Count of elements : 2956
Stream size : 31.1 MiB (0%)
Title : Portuguese (Iberian)
Language : Portuguese
Default : No
Forced : No

Text #20
ID : 23
Format : PGS
Codec ID : S_HDMV/PGS
Codec ID/Info : Picture based subtitle format used on BDs/HD-DVDs
Duration : 1 h 59 min
Bit rate : 33.9 kb/s
Count of elements : 2948
Stream size : 29.1 MiB (0%)
Title : Romanian
Language : Romanian
Default : No
Forced : No

Text #21
ID : 24
Format : PGS
Codec ID : S_HDMV/PGS
Codec ID/Info : Picture based subtitle format used on BDs/HD-DVDs
Duration : 1 h 59 min
Bit rate : 37.9 kb/s
Count of elements : 3004
Stream size : 32.5 MiB (0%)
Title : Russian
Language : Russian
Default : No
Forced : No

Text #22
ID : 25
Format : PGS
Codec ID : S_HDMV/PGS
Codec ID/Info : Picture based subtitle format used on BDs/HD-DVDs
Duration : 2 h 0 min
Bit rate : 35.1 kb/s
Count of elements : 2982
Stream size : 30.3 MiB (0%)
Title : Spanish (Castilian)
Language : Spanish
Default : No
Forced : No

Text #23
ID : 26
Format : PGS
Codec ID : S_HDMV/PGS
Codec ID/Info : Picture based subtitle format used on BDs/HD-DVDs
Duration : 2 h 2 min
Bit rate : 33.5 kb/s
Count of elements : 2950
Stream size : 29.3 MiB (0%)
Title : Spanish (Latin American)
Language : Spanish
Default : No
Forced : No

Text #24
ID : 27
Format : PGS
Codec ID : S_HDMV/PGS
Codec ID/Info : Picture based subtitle format used on BDs/HD-DVDs
Duration : 2 h 6 min
Bit rate : 28.7 kb/s
Count of elements : 2396
Stream size : 26.0 MiB (0%)
Title : Swedish
Language : Swedish
Default : No
Forced : No

Text #25
ID : 28
Format : PGS
Codec ID : S_HDMV/PGS
Codec ID/Info : Picture based subtitle format used on BDs/HD-DVDs
Duration : 2 h 0 min
Bit rate : 33.5 kb/s
Count of elements : 3002
Stream size : 28.9 MiB (0%)
Title : Turkish
Language : Turkish
Default : No
Forced : No

Text #26
ID : 29
Format : PGS
Codec ID : S_HDMV/PGS
Codec ID/Info : Picture based subtitle format used on BDs/HD-DVDs
Duration : 1 h 59 min
Bit rate : 34.8 kb/s
Count of elements : 3004
Stream size : 29.8 MiB (0%)
Title : Ukrainian
Language : Ukrainian
Default : No
Forced : No

Text #27
ID : 30
Format : PGS
Codec ID : S_HDMV/PGS
Codec ID/Info : Picture based subtitle format used on BDs/HD-DVDs
Duration : 2 h 0 min
Bit rate : 46.1 kb/s
Count of elements : 3068
Stream size : 39.9 MiB (0%)
Title : Vietnamese
Language : Vietnamese
Default : No
Forced : No

Text #28
ID : 31
Format : PGS
Codec ID : S_HDMV/PGS
Codec ID/Info : Picture based subtitle format used on BDs/HD-DVDs
Duration : 2 h 1 min
Bit rate : 68.5 kb/s
Count of elements : 4048
Stream size : 59.7 MiB (0%)
Title : English (Commentary)
Language : English
Default : No
Forced : No

Text #29
ID : 32
Format : PGS
Codec ID : S_HDMV/PGS
Codec ID/Info : Picture based subtitle format used on BDs/HD-DVDs
Duration : 2 h 1 min
Bit rate : 32.9 kb/s
Count of elements : 3988
Stream size : 28.7 MiB (0%)
Title : Arabic (Commentary)
Language : Arabic
Default : No
Forced : No

Text #30
ID : 33
Format : PGS
Codec ID : S_HDMV/PGS
Codec ID/Info : Picture based subtitle format used on BDs/HD-DVDs
Duration : 2 h 1 min
Bit rate : 48.8 kb/s
Count of elements : 3984
Stream size : 42.6 MiB (0%)
Title : Bulgarian (Commentary)
Language : Bulgarian
Default : No
Forced : No

Text #31
ID : 34
Format : PGS
Codec ID : S_HDMV/PGS
Codec ID/Info : Picture based subtitle format used on BDs/HD-DVDs
Duration : 2 h 1 min
Bit rate : 59.7 kb/s
Count of elements : 3982
Stream size : 52.0 MiB (0%)
Title : Danish (Commentary)
Language : Danish
Default : No
Forced : No

Text #32
ID : 35
Format : PGS
Codec ID : S_HDMV/PGS
Codec ID/Info : Picture based subtitle format used on BDs/HD-DVDs
Duration : 2 h 1 min
Bit rate : 48.9 kb/s
Count of elements : 3466
Stream size : 42.6 MiB (0%)
Title : Dutch (Commentary)
Language : Dutch
Default : No
Forced : No

Text #33
ID : 36
Format : PGS
Codec ID : S_HDMV/PGS
Codec ID/Info : Picture based subtitle format used on BDs/HD-DVDs
Duration : 2 h 1 min
Bit rate : 56.4 kb/s
Count of elements : 3978
Stream size : 49.2 MiB (0%)
Title : Finnish (Commentary)
Language : Finnish
Default : No
Forced : No

Text #34
ID : 37
Format : PGS
Codec ID : S_HDMV/PGS
Codec ID/Info : Picture based subtitle format used on BDs/HD-DVDs
Duration : 2 h 1 min
Bit rate : 56.8 kb/s
Count of elements : 3948
Stream size : 49.6 MiB (0%)
Title : French (Commentary)
Language : French
Default : No
Forced : No

Text #35
ID : 38
Format : PGS
Codec ID : S_HDMV/PGS
Codec ID/Info : Picture based subtitle format used on BDs/HD-DVDs
Duration : 2 h 1 min
Bit rate : 50.3 kb/s
Count of elements : 3480
Stream size : 43.8 MiB (0%)
Title : German (Commentary)
Language : German
Default : No
Forced : No

Text #36
ID : 39
Format : PGS
Codec ID : S_HDMV/PGS
Codec ID/Info : Picture based subtitle format used on BDs/HD-DVDs
Duration : 2 h 1 min
Bit rate : 56.4 kb/s
Count of elements : 3984
Stream size : 49.2 MiB (0%)
Title : Icelandic (Commentary)
Language : Icelandic
Default : No
Forced : No

Text #37
ID : 40
Format : PGS
Codec ID : S_HDMV/PGS
Codec ID/Info : Picture based subtitle format used on BDs/HD-DVDs
Duration : 2 h 1 min
Bit rate : 61.7 kb/s
Count of elements : 3984
Stream size : 53.8 MiB (0%)
Title : Italian (Commentary)
Language : Italian
Default : No
Forced : No

Text #38
ID : 41
Format : PGS
Codec ID : S_HDMV/PGS
Codec ID/Info : Picture based subtitle format used on BDs/HD-DVDs
Duration : 2 h 1 min
Bit rate : 58.9 kb/s
Count of elements : 3978
Stream size : 51.3 MiB (0%)
Title : Norwegian (Commentary)
Language : Norwegian
Default : No
Forced : No

Text #39
ID : 42
Format : PGS
Codec ID : S_HDMV/PGS
Codec ID/Info : Picture based subtitle format used on BDs/HD-DVDs
Duration : 2 h 1 min
Bit rate : 62.5 kb/s
Count of elements : 3982
Stream size : 54.5 MiB (0%)
Title : Portuguese (Iberian) (Commentary)
Language : Portuguese
Default : No
Forced : No

Text #40
ID : 43
Format : PGS
Codec ID : S_HDMV/PGS
Codec ID/Info : Picture based subtitle format used on BDs/HD-DVDs
Duration : 2 h 1 min
Bit rate : 60.1 kb/s
Count of elements : 3984
Stream size : 52.4 MiB (0%)
Title : Romanian (Commentary)
Language : Romanian
Default : No
Forced : No

Text #41
ID : 44
Format : PGS
Codec ID : S_HDMV/PGS
Codec ID/Info : Picture based subtitle format used on BDs/HD-DVDs
Duration : 2 h 1 min
Bit rate : 64.3 kb/s
Count of elements : 3984
Stream size : 56.1 MiB (0%)
Title : Russian (Commentary)
Language : Russian
Default : No
Forced : No

Text #42
ID : 45
Format : PGS
Codec ID : S_HDMV/PGS
Codec ID/Info : Picture based subtitle format used on BDs/HD-DVDs
Duration : 2 h 1 min
Bit rate : 60.0 kb/s
Count of elements : 3968
Stream size : 52.4 MiB (0%)
Title : Spanish (Castilian) (Commentary)
Language : Spanish
Default : No
Forced : No

Text #43
ID : 46
Format : PGS
Codec ID : S_HDMV/PGS
Codec ID/Info : Picture based subtitle format used on BDs/HD-DVDs
Duration : 2 h 1 min
Bit rate : 62.7 kb/s
Count of elements : 4032
Stream size : 54.7 MiB (0%)
Title : Spanish (Latin American) (Commentary)
Language : Spanish
Default : No
Forced : No

Text #44
ID : 47
Format : PGS
Codec ID : S_HDMV/PGS
Codec ID/Info : Picture based subtitle format used on BDs/HD-DVDs
Duration : 2 h 1 min
Bit rate : 58.0 kb/s
Count of elements : 3941
Stream size : 50.6 MiB (0%)
Title : Swedish (Commentary)
Language : Swedish
Default : No
Forced : No

Text #45
ID : 48
Format : PGS
Codec ID : S_HDMV/PGS
Codec ID/Info : Picture based subtitle format used on BDs/HD-DVDs
Duration : 2 h 1 min
Bit rate : 56.9 kb/s
Count of elements : 3986
Stream size : 49.6 MiB (0%)
Title : Turkish (Commentary)
Language : Turkish
Default : No
Forced : No

Text #46
ID : 49
Format : PGS
Codec ID : S_HDMV/PGS
Codec ID/Info : Picture based subtitle format used on BDs/HD-DVDs
Duration : 2 h 1 min
Bit rate : 42.4 kb/s
Count of elements : 3988
Stream size : 36.9 MiB (0%)
Title : Ukrainian (Commentary)
Language : Ukrainian
Default : No
Forced : No

Menu
00:00:00.000 : en:Opening Titles
00:03:00.471 : en:Charlie Kenton
00:10:38.304 : en:Wheeling & Dealing
00:18:50.546 : en:Noisy Boy Has Arrived
00:24:29.885 : en:Crash Palace
00:34:14.761 : en:Metal Valley
00:41:22.354 : en:Atom
00:48:46.131 : en:He Was Beautiful
00:52:08.708 : en:The Champ Is Here
00:57:15.014 : en:The Zoo
01:05:01.230 : en:Training Atom
01:12:33.974 : en:Climbing The Ranks
01:18:26.993 : en:Twin Cities
01:26:28.516 : en:Fight For Me
01:32:50.773 : en:Go Get Him, Charlie
01:39:19.703 : en:The Mighty Zeus
01:48:22.662 : en:Toe-To-Toe
01:52:26.865 : en:Final Round
01:57:21.868 : en:people's Champion
02:00:50.326 : en:End Credits

Password/Readme

Password & My Message