Fast Download Mirrors

Red Rocket (2021) • Movie | 2160p.AMZN.WEB-DL.DDP5.1.HEVC-EVO [19.34 GB]

Red Rocket Comedy, Drama | December 17, 2021 (Canada) Summary: Mikey Saber is a washed-up porn star who returns to his small Texas hometown, not that anyone really wants him back.
Countries: United StatesLanguages: English

Finding himself down and out in Los Angeles, ex porn star Mikey Saber decides to crawl back to his hometown of Texas City, Texas, where his estranged wife and mother-in-law are living. Just as this dysfunctional family seems to be making things work, Mikey meets a young woman named Strawberry working the cash register at a local doughnut shop.

Mirrors: GDrive [Gadrive, GDToT, Index, Sharer], MultiUp
Format: MKV
Credits: EVO

Download

General
Unique ID                                : 261166764790850988505303151232791783942 (0xC47AE3A7C8EC9F115B5876548F8AAA06)
Complete name                            : Red.Rocket.2021.2160p.AMZN.WEB-DL.DDP5.1.HEVC-EVO.mkv
Format                                   : Matroska
Format version                           : Version 2
File size                                : 19.3 GiB
Duration                                 : 2 h 10 min
Overall bit rate                         : 21.3 Mb/s
Encoded date                             : UTC 2022-02-08 06:14:01
Writing application                      : mkvmerge v35.0.0 ('All The Love In The World') 64-bit
Writing library                          : libebml v1.3.9 + libmatroska v1.5.2

Video
ID                                       : 1
Format                                   : HEVC
Format/Info                              : High Efficiency Video Coding
Format profile                           : Main 10@L5@High
Codec ID                                 : V_MPEGH/ISO/HEVC
Duration                                 : 2 h 10 min
Bit rate                                 : 20.2 Mb/s
Width                                    : 3 836 pixels
Height                                   : 1 604 pixels
Display aspect ratio                     : 2.40:1
Frame rate mode                          : Constant
Frame rate                               : 23.976 (24000/1001) FPS
Color space                              : YUV
Chroma subsampling                       : 4:2:0
Bit depth                                : 10 bits
Bits/(Pixel*Frame)                       : 0.137
Stream size                              : 18.4 GiB (95%)
Language                                 : English
Default                                  : Yes
Forced                                   : No
Color range                              : Limited
Color primaries                          : BT.709
Transfer characteristics                 : BT.709
Matrix coefficients                      : BT.709

Audio
ID                                       : 2
Format                                   : E-AC-3
Format/Info                              : Enhanced AC-3
Commercial name                          : Dolby Digital Plus
Codec ID                                 : A_EAC3
Duration                                 : 2 h 10 min
Bit rate mode                            : Constant
Bit rate                                 : 640 kb/s
Channel(s)                               : 6 channels
Channel layout                           : L R C LFE Ls Rs
Sampling rate                            : 48.0 kHz
Frame rate                               : 31.250 FPS (1536 SPF)
Compression mode                         : Lossy
Stream size                              : 596 MiB (3%)
Language                                 : English
Service kind                             : Complete Main
Default                                  : Yes
Forced                                   : No

Readme/Password

Password & My Message