Fast Download Mirrors

Rise of the Footsoldier: Origins (2021) • Movie | 1080p.WEBRip.DD5.1.x264-NOGRP

Rise of the Footsoldier: Origins (2021) • Movie
Rise of the Footsoldier: Origins 107min | Action, Crime, Drama | September 3, 2021 (United Kingdom) Summary: The origin story of how Tucker, Rolfie, and Pat Tate unite to form their own firm.
Countries: United KingdomLanguages: English

The origin story of how Tucker, Rolfie, and Pat Tate unite to form their own firm.

Mirrors: MirrorAce, MultiUp, Gdrive[GDTOT, Sharer]
Format: MKV
Credits: -

Download

Video
ID : 1
Format : AVC
Format/Info : Advanced Video Codec
Format profile : High@L4
Format settings : CABAC / 5 Ref Frames
Format settings, CABAC : Yes
Format settings, Reference frames : 5 frames
Codec ID : V_MPEG4/ISO/AVC
Duration : 1 h 46 min
Bit rate : 6 682 kb/s
Width : 1 918 pixels
Height : 800 pixels
Display aspect ratio : 2.40:1
Original display aspect ratio : 2.40:1
Frame rate mode : Constant
Frame rate : 24.000 FPS
Color space : YUV
Chroma subsampling : 4:2:0
Bit depth : 8 bits
Scan type : Progressive
Bits/(Pixel*Frame) : 0.181
Stream size : 4.97 GiB (95%)
Default : Yes
Forced : No
Color range : Limited
Color primaries : BT.709
Transfer characteristics : BT.709
Matrix coefficients : BT.709

Audio
ID : 2
Format : AC-3
Format/Info : Audio Coding 3
Commercial name : Dolby Digital
Codec ID : A_AC3
Duration : 1 h 46 min
Bit rate mode : Constant
Bit rate : 384 kb/s
Channel(s) : 6 channels
Channel layout : L R C LFE Ls Rs
Sampling rate : 48.0 kHz
Frame rate : 31.250 FPS (1536 SPF)
Compression mode : Lossy
Stream size : 292 MiB (5%)
Title : British English
Language : English
Service kind : Complete Main
Default : No
Forced : No

Readme/Password

Password & My Message

Screenshots