Fast Download Mirrors

Ron’s Gone Wrong (2021) • Movie | 1080p.BluRay.REMUX.AVC.DTS-HD.MA.7.1-PiRaTeS [24.5 GB]

Ron's Gone Wrong (2021)
Ron's Gone Wrong Animation, Adventure, Comedy, Family, Sci-Fi | October 22, 2021 (United States) Summary: The story of Barney, an awkward middle-schooler and Ron, his new walking, talking, digitally-connected device. Ron's malfunctions set against the backdrop of the social media age launch them... Read all
Countries: United States, United Kingdom, CanadaLanguages: English

In a world where walking, talking, digitally connected bots have become children’s best friends, an 11-year-old finds that his robot buddy doesn’t quite work the same as the others do.

Mirrors: 1fichier, Gdrive[GDTOT, Sharer, GAdrive], Gdrive Index, MultiUp
Format: MKV
Credits: PiRaTeS

Download

General
Unique ID                                : 81742216243125248381784529485194626133 (0x3D7EFA6B3486643BC29B3102A0AC8455)
Complete name                            : Rons.Gone.Wrong.2021.1080p.BluRay.REMUX.AVC.DTS-HD.MA.7.1-PiRaTeS.mkv
Format                                   : Matroska
Format version                           : Version 2
File size                                : 24.6 GiB
Duration                                 : 1 h 46 min
Overall bit rate mode                    : Variable
Overall bit rate                         : 33.0 Mb/s
Encoded date                             : UTC 2021-12-05 10:13:22
Writing application                      : MakeMKV v1.16.5 linux(x64-release)
Writing library                          : libmakemkv v1.16.5 (1.3.10/1.5.2) x86_64-linux-gnu

Video
ID                                       : 1
ID in the original source medium         : 4113 (0x1011)
Format                                   : AVC
Format/Info                              : Advanced Video Codec
Format profile                           : High@L4.1
Format settings                          : CABAC / 4 Ref Frames
Format settings, CABAC                   : Yes
Format settings, Reference frames        : 4 frames
Codec ID                                 : V_MPEG4/ISO/AVC
Duration                                 : 1 h 46 min
Bit rate mode                            : Variable
Bit rate                                 : 28.2 Mb/s
Maximum bit rate                         : 31.1 Mb/s
Width                                    : 1 920 pixels
Height                                   : 1 080 pixels
Display aspect ratio                     : 16:9
Frame rate mode                          : Constant
Frame rate                               : 23.976 (24000/1001) FPS
Color space                              : YUV
Chroma subsampling                       : 4:2:0
Bit depth                                : 8 bits
Scan type                                : Progressive
Bits/(Pixel*Frame)                       : 0.566
Stream size                              : 21.0 GiB (85%)
Language                                 : English
Default                                  : No
Forced                                   : No
Original source medium                   : Blu-ray

Audio
ID                                       : 2
ID in the original source medium         : 4352 (0x1100)
Format                                   : DTS XLL
Format/Info                              : Digital Theater Systems
Commercial name                          : DTS-HD Master Audio
Codec ID                                 : A_DTS
Duration                                 : 1 h 46 min
Bit rate mode                            : Variable
Bit rate                                 : 4 636 kb/s
Channel(s)                               : 8 channels
Channel layout                           : C L R LFE Lb Rb Lss Rss
Sampling rate                            : 48.0 kHz
Frame rate                               : 93.750 FPS (512 SPF)
Bit depth                                : 24 bits
Compression mode                         : Lossless
Stream size                              : 3.46 GiB (14%)
Language                                 : English
Default                                  : Yes
Forced                                   : No
Original source medium                   : Blu-ray

Text #1
ID                                       : 3
ID in the original source medium         : 4608 (0x1200)
Format                                   : PGS
Codec ID                                 : S_HDMV/PGS
Codec ID/Info                            : Picture based subtitle format used on BDs/HD-DVDs
Duration                                 : 1 h 43 min
Bit rate                                 : 66.0 kb/s
Count of elements                        : 4804
Stream size                              : 49.0 MiB (0%)
Language                                 : English
Default                                  : No
Forced                                   : No
Original source medium                   : Blu-ray

Text #2
ID                                       : 5
ID in the original source medium         : 4609 (0x1201)
Format                                   : PGS
Codec ID                                 : S_HDMV/PGS
Codec ID/Info                            : Picture based subtitle format used on BDs/HD-DVDs
Duration                                 : 1 h 45 min
Bit rate                                 : 49.9 kb/s
Count of elements                        : 3684
Stream size                              : 37.7 MiB (0%)
Language                                 : French
Default                                  : No
Forced                                   : No
Original source medium                   : Blu-ray

Text #3
ID                                       : 6
ID in the original source medium         : 4610 (0x1202)
Format                                   : PGS
Codec ID                                 : S_HDMV/PGS
Codec ID/Info                            : Picture based subtitle format used on BDs/HD-DVDs
Duration                                 : 1 h 39 min
Bit rate                                 : 48.4 kb/s
Count of elements                        : 3628
Stream size                              : 34.4 MiB (0%)
Language                                 : Spanish
Default                                  : No
Forced                                   : No
Original source medium                   : Blu-ray

Menu
00:00:00.000                             : en:Chapter 01
00:07:58.519                             : en:Chapter 02
00:14:35.416                             : en:Chapter 03
00:21:32.749                             : en:Chapter 04
00:29:58.630                             : en:Chapter 05
00:35:12.276                             : en:Chapter 06
00:40:05.111                             : en:Chapter 07
00:45:50.080                             : en:Chapter 08
00:52:35.610                             : en:Chapter 09
00:58:08.276                             : en:Chapter 10
01:04:16.519                             : en:Chapter 11
01:11:24.154                             : en:Chapter 12
01:19:45.363                             : en:Chapter 13
01:23:37.220                             : en:Chapter 14
01:28:54.287                             : en:Chapter 15
01:32:59.282                             : en:Chapter 16
01:37:36.559                             : en:Chapter 17
01:40:04.039                             : en:Chapter 18

RON’S GONE WRONG (2021) • MOVIE | 2160P.UHD.BLURAY.REMUX.HDR.HEVC.ATMOS-PIRATES [41.9 GB]
https://ambassadorddl.site/rons-gone-wrong-2021-movie-2160p-uhd-bluray-remux-hdr-hevc-atmos-pirates/
Readme/Password

Password & My Message