Fast Download Mirrors

Scream (2022) • Movie | 1080p.Bluray.REMUX.AVC.DTS-HD.MA.7.1-4K4U [28.9 GB]

Scream Horror, Mystery, Thriller | January 14, 2022 (United States) Summary: Twenty-five years after the original series of murders in Woodsboro, a new Ghostface emerges, and Sidney Prescott must return to uncover the truth.
Countries: United StatesLanguages: English

Twenty-five years after a streak of brutal murders shocked the quiet town of Woodsboro, a new killer has donned the Ghostface mask and begins targeting a group of teenagers to resurrect secrets from the town’s deadly past.

Mirrors: GDrive [Gadrive, GDToT, Index, Sharer], MultiUp
Format: MKV
Credits: 4K4U

Download

General
Unique ID                                : 81705478035117868401865198360634557350 (0x3D77E715D42ABF154D93A68F090383A6)
Complete name                            : Scream.2022.1080p.Bluray.REMUX.AVC.DTS-HD.MA.7.1-4K4U.mkv
Format                                   : Matroska
Format version                           : Version 4
File size                                : 28.9 GiB
Duration                                 : 1 h 54 min
Overall bit rate mode                    : Variable
Overall bit rate                         : 36.2 Mb/s
Encoded date                             : UTC 2022-03-19 18:51:00
Writing application                      : mkvmerge v66.0.0 ('Josie') 64-bit
Writing library                          : libebml v1.4.2 + libmatroska v1.6.4
Cover                                    : Yes
Attachments                              : cover.jpg

Video
ID                                       : 1
ID in the original source medium         : 4113 (0x1011)
Format                                   : AVC
Format/Info                              : Advanced Video Codec
Format profile                           : High@L4.1
Format settings                          : CABAC / 4 Ref Frames
Format settings, CABAC                   : Yes
Format settings, Reference frames        : 4 frames
Codec ID                                 : V_MPEG4/ISO/AVC
Duration                                 : 1 h 54 min
Bit rate mode                            : Variable
Bit rate                                 : 30.3 Mb/s
Maximum bit rate                         : 33.5 Mb/s
Width                                    : 1 920 pixels
Height                                   : 1 080 pixels
Display aspect ratio                     : 16:9
Frame rate mode                          : Constant
Frame rate                               : 23.976 (24000/1001) FPS
Color space                              : YUV
Chroma subsampling                       : 4:2:0
Bit depth                                : 8 bits
Scan type                                : Progressive
Bits/(Pixel*Frame)                       : 0.610
Stream size                              : 24.2 GiB (84%)
Default                                  : Yes
Forced                                   : No
Original source medium                   : Blu-ray

Audio #1
ID                                       : 2
ID in the original source medium         : 4352 (0x1100)
Format                                   : DTS XLL
Format/Info                              : Digital Theater Systems
Commercial name                          : DTS-HD Master Audio
Codec ID                                 : A_DTS
Duration                                 : 1 h 54 min
Bit rate mode                            : Variable
Bit rate                                 : 4 374 kb/s
Channel(s)                               : 8 channels
Channel layout                           : C L R LFE Lb Rb Lss Rss
Sampling rate                            : 48.0 kHz
Frame rate                               : 93.750 FPS (512 SPF)
Bit depth                                : 24 bits
Compression mode                         : Lossless
Stream size                              : 3.49 GiB (12%)
Title                                    : DTS-HD MA 5.1
Language                                 : English
Default                                  : Yes
Forced                                   : No
Original source medium                   : Blu-ray

Audio #2
ID                                       : 3
ID in the original source medium         : 4353 (0x1101)
Format                                   : AC-3
Format/Info                              : Audio Coding 3
Commercial name                          : Dolby Digital
Codec ID                                 : A_AC3
Duration                                 : 1 h 54 min
Bit rate mode                            : Constant
Bit rate                                 : 640 kb/s
Channel(s)                               : 6 channels
Channel layout                           : L R C LFE Ls Rs
Sampling rate                            : 48.0 kHz
Frame rate                               : 31.250 FPS (1536 SPF)
Compression mode                         : Lossy
Stream size                              : 523 MiB (2%)
Title                                    : AC-3 5.1
Language                                 : English
Service kind                             : Complete Main
Default                                  : No
Forced                                   : No
Original source medium                   : Blu-ray

Audio #3
ID                                       : 4
ID in the original source medium         : 4361 (0x1109)
Format                                   : AC-3
Format/Info                              : Audio Coding 3
Commercial name                          : Dolby Digital
Codec ID                                 : A_AC3
Duration                                 : 1 h 54 min
Bit rate mode                            : Constant
Bit rate                                 : 224 kb/s
Channel(s)                               : 2 channels
Channel layout                           : L R
Sampling rate                            : 48.0 kHz
Frame rate                               : 31.250 FPS (1536 SPF)
Compression mode                         : Lossy
Stream size                              : 183 MiB (1%)
Title                                    : AC-3 2.0
Language                                 : English
Service kind                             : Complete Main
Default                                  : No
Forced                                   : No
Original source medium                   : Blu-ray

Text #1
ID                                       : 5
ID in the original source medium         : 4608 (0x1200)
Format                                   : PGS
Muxing mode                              : zlib
Codec ID                                 : S_HDMV/PGS
Codec ID/Info                            : Picture based subtitle format used on BDs/HD-DVDs
Duration                                 : 1 h 46 min
Bit rate                                 : 41.5 kb/s
Count of elements                        : 2954
Stream size                              : 31.5 MiB (0%)
Language                                 : English
Default                                  : No
Forced                                   : No
Original source medium                   : Blu-ray

Text #2
ID                                       : 6
ID in the original source medium         : 4609 (0x1201)
Format                                   : PGS
Muxing mode                              : zlib
Codec ID                                 : S_HDMV/PGS
Codec ID/Info                            : Picture based subtitle format used on BDs/HD-DVDs
Duration                                 : 1 h 53 min
Bit rate                                 : 43.2 kb/s
Count of elements                        : 3283
Stream size                              : 35.1 MiB (0%)
Language                                 : English
Default                                  : No
Forced                                   : No
Original source medium                   : Blu-ray

Text #3
ID                                       : 7
ID in the original source medium         : 4610 (0x1202)
Format                                   : PGS
Muxing mode                              : zlib
Codec ID                                 : S_HDMV/PGS
Codec ID/Info                            : Picture based subtitle format used on BDs/HD-DVDs
Duration                                 : 1 h 53 min
Bit rate                                 : 31.4 kb/s
Count of elements                        : 2985
Stream size                              : 25.5 MiB (0%)
Language                                 : Chinese
Default                                  : No
Forced                                   : No
Original source medium                   : Blu-ray

Text #4
ID                                       : 8
ID in the original source medium         : 4611 (0x1203)
Format                                   : PGS
Muxing mode                              : zlib
Codec ID                                 : S_HDMV/PGS
Codec ID/Info                            : Picture based subtitle format used on BDs/HD-DVDs
Duration                                 : 1 h 53 min
Bit rate                                 : 38.7 kb/s
Count of elements                        : 2845
Stream size                              : 31.4 MiB (0%)
Language                                 : German
Default                                  : No
Forced                                   : No
Original source medium                   : Blu-ray

Text #5
ID                                       : 9
ID in the original source medium         : 4612 (0x1204)
Format                                   : PGS
Muxing mode                              : zlib
Codec ID                                 : S_HDMV/PGS
Codec ID/Info                            : Picture based subtitle format used on BDs/HD-DVDs
Duration                                 : 1 h 53 min
Bit rate                                 : 38.3 kb/s
Count of elements                        : 3031
Stream size                              : 31.0 MiB (0%)
Language                                 : Spanish
Default                                  : No
Forced                                   : No
Original source medium                   : Blu-ray

Text #6
ID                                       : 10
ID in the original source medium         : 4613 (0x1205)
Format                                   : PGS
Muxing mode                              : zlib
Codec ID                                 : S_HDMV/PGS
Codec ID/Info                            : Picture based subtitle format used on BDs/HD-DVDs
Duration                                 : 1 h 53 min
Bit rate                                 : 34.4 kb/s
Count of elements                        : 3027
Stream size                              : 27.9 MiB (0%)
Language                                 : Spanish
Default                                  : No
Forced                                   : No
Original source medium                   : Blu-ray

Text #7
ID                                       : 11
ID in the original source medium         : 4614 (0x1206)
Format                                   : PGS
Muxing mode                              : zlib
Codec ID                                 : S_HDMV/PGS
Codec ID/Info                            : Picture based subtitle format used on BDs/HD-DVDs
Duration                                 : 1 h 53 min
Bit rate                                 : 32.4 kb/s
Count of elements                        : 2797
Stream size                              : 26.3 MiB (0%)
Language                                 : French
Default                                  : No
Forced                                   : No
Original source medium                   : Blu-ray

Text #8
ID                                       : 12
ID in the original source medium         : 4615 (0x1207)
Format                                   : PGS
Muxing mode                              : zlib
Codec ID                                 : S_HDMV/PGS
Codec ID/Info                            : Picture based subtitle format used on BDs/HD-DVDs
Duration                                 : 1 h 53 min
Bit rate                                 : 36.8 kb/s
Count of elements                        : 3011
Stream size                              : 29.8 MiB (0%)
Language                                 : French
Default                                  : No
Forced                                   : No
Original source medium                   : Blu-ray

Text #9
ID                                       : 13
ID in the original source medium         : 4616 (0x1208)
Format                                   : PGS
Muxing mode                              : zlib
Codec ID                                 : S_HDMV/PGS
Codec ID/Info                            : Picture based subtitle format used on BDs/HD-DVDs
Duration                                 : 1 h 53 min
Bit rate                                 : 34.8 kb/s
Count of elements                        : 2929
Stream size                              : 28.2 MiB (0%)
Language                                 : Italian
Default                                  : No
Forced                                   : No
Original source medium                   : Blu-ray

Text #10
ID                                       : 14
ID in the original source medium         : 4617 (0x1209)
Format                                   : PGS
Muxing mode                              : zlib
Codec ID                                 : S_HDMV/PGS
Codec ID/Info                            : Picture based subtitle format used on BDs/HD-DVDs
Duration                                 : 1 h 47 min
Bit rate                                 : 26.6 kb/s
Count of elements                        : 3049
Stream size                              : 20.4 MiB (0%)
Language                                 : Japanese
Default                                  : No
Forced                                   : No
Original source medium                   : Blu-ray

Text #11
ID                                       : 15
ID in the original source medium         : 4618 (0x120A)
Format                                   : PGS
Muxing mode                              : zlib
Codec ID                                 : S_HDMV/PGS
Codec ID/Info                            : Picture based subtitle format used on BDs/HD-DVDs
Duration                                 : 1 h 53 min
Bit rate                                 : 27.1 kb/s
Count of elements                        : 3045
Stream size                              : 21.9 MiB (0%)
Language                                 : Korean
Default                                  : No
Forced                                   : No
Original source medium                   : Blu-ray

Text #12
ID                                       : 16
ID in the original source medium         : 4619 (0x120B)
Format                                   : PGS
Muxing mode                              : zlib
Codec ID                                 : S_HDMV/PGS
Codec ID/Info                            : Picture based subtitle format used on BDs/HD-DVDs
Duration                                 : 1 h 53 min
Bit rate                                 : 33.6 kb/s
Count of elements                        : 2235
Stream size                              : 27.2 MiB (0%)
Language                                 : Dutch
Default                                  : No
Forced                                   : No
Original source medium                   : Blu-ray

Text #13
ID                                       : 17
ID in the original source medium         : 4620 (0x120C)
Format                                   : PGS
Muxing mode                              : zlib
Codec ID                                 : S_HDMV/PGS
Codec ID/Info                            : Picture based subtitle format used on BDs/HD-DVDs
Duration                                 : 1 h 53 min
Bit rate                                 : 32.7 kb/s
Count of elements                        : 3053
Stream size                              : 26.5 MiB (0%)
Language                                 : Portuguese
Default                                  : No
Forced                                   : No
Original source medium                   : Blu-ray

Text #14
ID                                       : 18
ID in the original source medium         : 4621 (0x120D)
Format                                   : PGS
Muxing mode                              : zlib
Codec ID                                 : S_HDMV/PGS
Codec ID/Info                            : Picture based subtitle format used on BDs/HD-DVDs
Duration                                 : 1 h 53 min
Bit rate                                 : 33.6 kb/s
Count of elements                        : 2983
Stream size                              : 27.2 MiB (0%)
Language                                 : Thai
Default                                  : No
Forced                                   : No
Original source medium                   : Blu-ray

Text #15
ID                                       : 19
ID in the original source medium         : 4622 (0x120E)
Format                                   : PGS
Muxing mode                              : zlib
Codec ID                                 : S_HDMV/PGS
Codec ID/Info                            : Picture based subtitle format used on BDs/HD-DVDs
Duration                                 : 1 h 54 min
Bit rate                                 : 89.6 kb/s
Count of elements                        : 4704
Stream size                              : 73.2 MiB (0%)
Language                                 : English
Default                                  : No
Forced                                   : No
Original source medium                   : Blu-ray

Text #16
ID                                       : 20
ID in the original source medium         : 4623 (0x120F)
Format                                   : PGS
Muxing mode                              : zlib
Codec ID                                 : S_HDMV/PGS
Codec ID/Info                            : Picture based subtitle format used on BDs/HD-DVDs
Duration                                 : 1 h 54 min
Bit rate                                 : 77.1 kb/s
Count of elements                        : 4394
Stream size                              : 63.0 MiB (0%)
Language                                 : German
Default                                  : No
Forced                                   : No
Original source medium                   : Blu-ray

Text #17
ID                                       : 21
ID in the original source medium         : 4624 (0x1210)
Format                                   : PGS
Muxing mode                              : zlib
Codec ID                                 : S_HDMV/PGS
Codec ID/Info                            : Picture based subtitle format used on BDs/HD-DVDs
Duration                                 : 1 h 54 min
Bit rate                                 : 75.0 kb/s
Count of elements                        : 4507
Stream size                              : 61.3 MiB (0%)
Language                                 : Spanish
Default                                  : No
Forced                                   : No
Original source medium                   : Blu-ray

Text #18
ID                                       : 22
ID in the original source medium         : 4625 (0x1211)
Format                                   : PGS
Muxing mode                              : zlib
Codec ID                                 : S_HDMV/PGS
Codec ID/Info                            : Picture based subtitle format used on BDs/HD-DVDs
Duration                                 : 1 h 54 min
Bit rate                                 : 74.4 kb/s
Count of elements                        : 4231
Stream size                              : 60.8 MiB (0%)
Language                                 : Spanish
Default                                  : No
Forced                                   : No
Original source medium                   : Blu-ray

Text #19
ID                                       : 23
ID in the original source medium         : 4626 (0x1212)
Format                                   : PGS
Muxing mode                              : zlib
Codec ID                                 : S_HDMV/PGS
Codec ID/Info                            : Picture based subtitle format used on BDs/HD-DVDs
Duration                                 : 1 h 54 min
Bit rate                                 : 74.4 kb/s
Count of elements                        : 4670
Stream size                              : 60.8 MiB (0%)
Language                                 : French
Default                                  : No
Forced                                   : No
Original source medium                   : Blu-ray

Text #20
ID                                       : 24
ID in the original source medium         : 4627 (0x1213)
Format                                   : PGS
Muxing mode                              : zlib
Codec ID                                 : S_HDMV/PGS
Codec ID/Info                            : Picture based subtitle format used on BDs/HD-DVDs
Duration                                 : 1 h 54 min
Bit rate                                 : 79.4 kb/s
Count of elements                        : 4652
Stream size                              : 64.9 MiB (0%)
Language                                 : French
Default                                  : No
Forced                                   : No
Original source medium                   : Blu-ray

Text #21
ID                                       : 25
ID in the original source medium         : 4628 (0x1214)
Format                                   : PGS
Muxing mode                              : zlib
Codec ID                                 : S_HDMV/PGS
Codec ID/Info                            : Picture based subtitle format used on BDs/HD-DVDs
Duration                                 : 1 h 54 min
Bit rate                                 : 72.8 kb/s
Count of elements                        : 4654
Stream size                              : 59.5 MiB (0%)
Language                                 : Italian
Default                                  : No
Forced                                   : No
Original source medium                   : Blu-ray

Text #22
ID                                       : 26
ID in the original source medium         : 4629 (0x1215)
Format                                   : PGS
Muxing mode                              : zlib
Codec ID                                 : S_HDMV/PGS
Codec ID/Info                            : Picture based subtitle format used on BDs/HD-DVDs
Duration                                 : 1 h 54 min
Bit rate                                 : 49.5 kb/s
Count of elements                        : 4132
Stream size                              : 40.4 MiB (0%)
Language                                 : Japanese
Default                                  : No
Forced                                   : No
Original source medium                   : Blu-ray

Text #23
ID                                       : 27
ID in the original source medium         : 4630 (0x1216)
Format                                   : PGS
Muxing mode                              : zlib
Codec ID                                 : S_HDMV/PGS
Codec ID/Info                            : Picture based subtitle format used on BDs/HD-DVDs
Duration                                 : 1 h 54 min
Bit rate                                 : 68.1 kb/s
Count of elements                        : 4706
Stream size                              : 55.7 MiB (0%)
Language                                 : Korean
Default                                  : No
Forced                                   : No
Original source medium                   : Blu-ray

Text #24
ID                                       : 28
ID in the original source medium         : 4631 (0x1217)
Format                                   : PGS
Muxing mode                              : zlib
Codec ID                                 : S_HDMV/PGS
Codec ID/Info                            : Picture based subtitle format used on BDs/HD-DVDs
Duration                                 : 1 h 54 min
Bit rate                                 : 75.3 kb/s
Count of elements                        : 4511
Stream size                              : 61.5 MiB (0%)
Language                                 : Portuguese
Default                                  : No
Forced                                   : No
Original source medium                   : Blu-ray

Text #25
ID                                       : 29
ID in the original source medium         : 4632 (0x1218)
Format                                   : PGS
Muxing mode                              : zlib
Codec ID                                 : S_HDMV/PGS
Codec ID/Info                            : Picture based subtitle format used on BDs/HD-DVDs
Duration                                 : 1 h 47 min
Bit rate                                 : 946 b/s
Count of elements                        : 106
Stream size                              : 743 KiB (0%)
Language                                 : Japanese
Default                                  : No
Forced                                   : No
Original source medium                   : Blu-ray

Menu
00:00:00.000                             : en:Chapter 01
00:11:18.969                             : en:Chapter 02
00:19:12.568                             : en:Chapter 03
00:31:06.364                             : en:Chapter 04
00:38:23.551                             : en:Chapter 05
00:44:21.825                             : en:Chapter 06
00:53:05.599                             : en:Chapter 07
00:59:44.289                             : en:Chapter 08
01:08:48.582                             : en:Chapter 09
01:16:27.708                             : en:Chapter 10
01:26:17.338                             : en:Chapter 11
01:38:30.779                             : en:Chapter 12
01:48:02.976                             : en:Chapter 13

Readme/Password

Password & My Message

Screenshots