Fast Download Mirrors

Sex Next Door (2020-) • TVSeries

Sex Next Door (2020-) • TVSeries
Sex Next Door (2020) Documentary | August 3, 2020 (United States)
Summary: A documentary on Quibi about sex workers in Seattle.
Countries: United StatesLanguages: English

Sex workers Holiday, Endza, Cayenne, and Jessie give clients intimate experiences ranging from the pleasurable to the painful. In the process, they give a deep dive into their personal lives. A documentary on Quibi about sex workers in Seattle.

Mirrors: MirrorAce, MultiUp, Gdrive[GDTOT]
Format: MKV
Season-1
S01.1080p.QUIBI.WEB-DL.AAC2.0.H.264-WELP

Download

Sex.Next.Door.S01.1080p.QUIBI.WEB-DL.AAC2.0.H.264-WELP.zip
[Single File][1.8GB][S01]
https://mirrorace.org/m/56Nti
https://multiup.org/32a166e5a247ce7d3257db164d3df43d
GDrive
https://new.gdtot.me/file/1969664220

Password & My Message


MediaInfo
General
Unique ID                                : 137198976577597652237106618263240150524 (0x67378FCDBC01B8F45D2F06D32F138DFC)
Complete name                            : Sex.Next.Door.S01E01.1080p.WEB-DL.AAC2.0.H.264-WELP.mkv
Format                                   : Matroska
Format version                           : Version 4
File size                                : 232 MiB
Duration                                 : 8 min 33 s
Overall bit rate                         : 3 786 kb/s
Encoded date                             : UTC 2020-08-31 11:24:23
Writing application                      : mkvmerge v49.0.0 ('Sick Of Losing Soulmates') 64-bit
Writing library                          : libebml v1.4.0 + libmatroska v1.6.1

Video
ID                                       : 1
Format                                   : AVC
Format/Info                              : Advanced Video Codec
Format profile                           : High@L4
Format settings                          : CABAC / 4 Ref Frames
Format settings, CABAC                   : Yes
Format settings, Reference frames        : 4 frames
Codec ID                                 : V_MPEG4/ISO/AVC
Duration                                 : 8 min 33 s
Bit rate                                 : 3 720 kb/s
Width                                    : 1 920 pixels
Height                                   : 1 080 pixels
Display aspect ratio                     : 16:9
Frame rate mode                          : Constant
Frame rate                               : 23.976 (24000/1001) FPS
Color space                              : YUV
Chroma subsampling                       : 4:2:0
Bit depth                                : 8 bits
Scan type                                : Progressive
Bits/(Pixel*Frame)                       : 0.075
Stream size                              : 228 MiB (98%)
Default                                  : Yes
Forced                                   : No

Audio
ID                                       : 2
Format                                   : AAC LC SBR
Format/Info                              : Advanced Audio Codec Low Complexity with Spectral Band Replication
Commercial name                          : HE-AAC
Format settings                          : Explicit
Codec ID                                 : A_AAC-2
Duration                                 : 8 min 33 s
Bit rate                                 : 64.0 kb/s
Channel(s)                               : 2 channels
Channel layout                           : L R
Sampling rate                            : 48.0 kHz
Frame rate                               : 23.438 FPS (2048 SPF)
Compression mode                         : Lossy
Stream size                              : 3.92 MiB (2%)
Language                                 : English
Default                                  : Yes
Forced                                   : No

Text #1
ID                                       : 3
Format                                   : UTF-8
Codec ID                                 : S_TEXT/UTF8
Codec ID/Info                            : UTF-8 Plain Text
Duration                                 : 8 min 27 s
Bit rate                                 : 104 b/s
Count of elements                        : 144
Stream size                              : 6.45 KiB (0%)
Language                                 : English
Default                                  : No
Forced                                   : No

Text #2
ID                                       : 4
Format                                   : UTF-8
Codec ID                                 : S_TEXT/UTF8
Codec ID/Info                            : UTF-8 Plain Text
Duration                                 : 8 min 29 s
Bit rate                                 : 110 b/s
Count of elements                        : 164
Stream size                              : 6.84 KiB (0%)
Title                                    : SDH
Language                                 : English
Default                                  : No
Forced                                   : No

Text #3
ID                                       : 5
Format                                   : UTF-8
Codec ID                                 : S_TEXT/UTF8
Codec ID/Info                            : UTF-8 Plain Text
Duration                                 : 8 min 27 s
Bit rate                                 : 111 b/s
Count of elements                        : 165
Stream size                              : 6.92 KiB (0%)
Language                                 : Spanish
Default                                  : No
Forced                                   : No