Fast Download Mirrors

Shershaah (2021) • Movie

Shershaah (2021) • Movie
Shershaah (2021) 135min | Action, Biography, Drama, History, War | August 12, 2021 (United States) Summary: This is a story of a PVC awardee brave Indian soldier - Capt. Vikram Batra, who shot to fame and became a household name during the Kargil War in 1999. His indomitable spirit and his unflinc... Read all
Countries: IndiaLanguages: Hindi

This is a story of a PVC awardee brave Indian soldier – Capt. Vikram Batra, who shot to fame and became a household name during the Kargil War in 1999. His indomitable spirit and his unflinching courage in chasing the Pakistani soldiers out of Indian territory contributed immensely in India finally winning the Kargil War in 1999.

Mirrors: MirrorAce, MultiUp, Gdrive[Sharer], GDrive Index
Format: MKV 

Download

General
Unique ID                                : 43928142727640846198896224467978869187 (0x210C40A6FD26C879D64FCD29C0FCD9C3)
Complete name                            : Shershaah.2021.1080p.AMZN.WEB-DL.DDP5.1.HEVC-Telly.mkv
Format                                   : Matroska
Format version                           : Version 4
File size                                : 3.81 GiB
Duration                                 : 2 h 15 min
Overall bit rate                         : 4 038 kb/s
Movie name                               : Telly
Encoded date                             : UTC 2021-08-11 18:50:09
Writing application                      : mkvmerge v59.0.0 ('Shining Star') 64-bit
Writing library                          : libebml v1.4.2 + libmatroska v1.6.4

Video
ID                                       : 1
Format                                   : HEVC
Format/Info                              : High Efficiency Video Coding
Format profile                           : Main@L4@Main
Codec ID                                 : V_MPEGH/ISO/HEVC
Duration                                 : 2 h 15 min
Bit rate                                 : 3 396 kb/s
Width                                    : 1 920 pixels
Height                                   : 800 pixels
Display aspect ratio                     : 2.40:1
Frame rate mode                          : Constant
Frame rate                               : 24.000 FPS
Standard                                 : NTSC
Color space                              : YUV
Chroma subsampling                       : 4:2:0
Bit depth                                : 8 bits
Bits/(Pixel*Frame)                       : 0.092
Stream size                              : 3.21 GiB (84%)
Default                                  : Yes
Forced                                   : No
Color range                              : Limited
Color primaries                          : BT.709
Transfer characteristics                 : BT.709
Matrix coefficients                      : BT.709

Audio
ID                                       : 2
Format                                   : E-AC-3
Format/Info                              : Enhanced AC-3
Commercial name                          : Dolby Digital Plus
Codec ID                                 : A_EAC3
Duration                                 : 2 h 15 min
Bit rate mode                            : Constant
Bit rate                                 : 640 kb/s
Channel(s)                               : 6 channels
Channel layout                           : L R C LFE Ls Rs
Sampling rate                            : 48.0 kHz
Frame rate                               : 31.250 FPS (1536 SPF)
Compression mode                         : Lossy
Stream size                              : 619 MiB (16%)
Title                                    : Hindi
Language                                 : Hindi
Service kind                             : Complete Main
Default                                  : No
Forced                                   : No

Text #1
ID                                       : 3
Format                                   : UTF-8
Codec ID                                 : S_TEXT/UTF8
Codec ID/Info                            : UTF-8 Plain Text
Duration                                 : 2 h 1 min
Bit rate                                 : 60 b/s
Count of elements                        : 1894
Stream size                              : 53.8 KiB (0%)
Title                                    : English [SDH]
Language                                 : English
Default                                  : No
Forced                                   : No

Text #2
ID                                       : 4
Format                                   : UTF-8
Codec ID                                 : S_TEXT/UTF8
Codec ID/Info                            : UTF-8 Plain Text
Duration                                 : 2 h 1 min
Bit rate                                 : 53 b/s
Count of elements                        : 1643
Stream size                              : 47.6 KiB (0%)
Title                                    : English
Language                                 : English
Default                                  : No
Forced                                   : No

Readme

Password & My Message

Screenshots