Fast Download Mirrors

Showtrial (2021-) • TVMiniSeries | S01.2160p.iP.WEB-DL.x265.10bit.HDR.HLG.AAC2.0-NTb [37.4GB]

Showtrial (2021)
Showtrial 60min | Crime, Drama, Thriller | October 31, 2021 (United Kingdom) Summary: A high profile murder case that captures the attention of the worlds media and the general public alike. Throwing Cleo Roberts, a once high flying solicitor defending the chief suspect, back... Read all
Countries: United KingdomLanguages: English

Every now and then a trial starts which grips the nation, placing victim and accused – as well as their families – at the heart of a media storm. Showtrial focuses on one such case, when Talitha Campbell, the arrogant daughter of a wealthy entrepreneur, is arrested following the disappearance of fellow student, Hannah Ellis, the hard-working daughter of a single mother. From Talitha’s arrest to the jury’s final verdict, Showtrial switches between both sides of the legal battle, as defence and prosecution fight for their version of what really happened to Hannah, and the truth about Talitha: falsely accused? Or callous murderer?

Mirrors: MirrorAce, MultiUp, Gdrive[GDTOT, Sharer]
Format: MKV
Credits: NTb
Seasons-1 Complete

Download

Video
ID : 1
Format : HEVC
Format/Info : High Efficiency Video Coding
Format profile : Main 10@L5.1@Main
Codec ID : V_MPEGH/ISO/HEVC
Duration : 59 min 17 s
Bit rate : 18.5 Mb/s
Width : 3 840 pixels
Height : 2 160 pixels
Display aspect ratio : 16:9
Frame rate mode : Constant
Frame rate : 25.000 FPS
Standard : Component
Color space : YUV
Chroma subsampling : 4:2:0
Bit depth : 10 bits
Bits/(Pixel*Frame) : 0.089
Stream size : 7.67 GiB (99%)
Default : Yes
Forced : No
Color range : Limited
Color primaries : BT.2020
Transfer characteristics : HLG
transfer_characteristics_Original : HLG / BT.2020 (10-bit)
Matrix coefficients : BT.2020 non-constant

Audio
ID : 2
Format : AAC LC
Format/Info : Advanced Audio Codec Low Complexity
Codec ID : A_AAC-2
Duration : 59 min 17 s
Bit rate : 192 kb/s
Channel(s) : 2 channels
Channel layout : L R
Sampling rate : 48.0 kHz
Frame rate : 46.875 FPS (1024 SPF)
Compression mode : Lossy
Stream size : 80.3 MiB (1%)
Language : English
Default : Yes
Forced : No

Readme/Password

Password & My Message

Screenshots