Fast Download Mirrors

Silent Night (2021) • Movie | 1080p.BluRay.x264-PussyFoot [4.1GB]

Silent Night (2021)
Silent Night Comedy, Horror | December 3, 2021 (United States) Summary: Nell, Simon, and their son Art are ready to welcome friends and family for what promises to be a perfect Christmas gathering. Perfect except for one thing: everyone is going to die.
Countries: United KingdomLanguages: English

Nell, Simon, and their boy Art are ready to welcome friends and family for what promises to be a perfect Christmas gathering. Perfect except for one thing: everyone is going to die.

Mirrors: MirrorAce, MultiUp, Gdrive[GDTOT, Sharer, GAdrive]
Format: MKV
Credits: PussyFoot

Download

Video
ID : 1
Format : AVC
Format/Info : Advanced Video Codec
Format profile : High@L4.1
Format settings : CABAC / 5 Ref Frames
Format settings, CABAC : Yes
Format settings, Reference frames : 5 frames
Codec ID : V_MPEG4/ISO/AVC
Duration : 1 h 30 min
Bit rate : 4 868 kb/s
Width : 1 920 pixels
Height : 804 pixels
Display aspect ratio : 2.40:1
Frame rate mode : Constant
Frame rate : 23.976 (24000/1001) FPS
Color space : YUV
Chroma subsampling : 4:2:0
Bit depth : 8 bits
Scan type : Progressive
Bits/(Pixel*Frame) : 0.132
Stream size : 3.08 GiB (74%)
Writing library : x264 core 164 r3075 66a5bc1
Encoding settings : cabac=1 / ref=5 / deblock=1:-3:-3 / analyse=0x3:0x133 / me=umh / subme=9 / psy=1 / psy_rd=1.00:0.00 / mixed_ref=1 / me_range=16 / chroma_me=1 / trellis=2 / 8x8dct=1 / cqm=0 / deadzone=21,11 / fast_pskip=0 / chroma_qp_offset=-2 / threads=24 / lookahead_threads=2 / sliced_threads=0 / nr=0 / decimate=1 / interlaced=0 / bluray_compat=0 / constrained_intra=0 / bframes=3 / b_pyramid=2 / b_adapt=2 / b_bias=0 / direct=3 / weightb=1 / open_gop=0 / weightp=2 / keyint=250 / keyint_min=23 / scenecut=40 / intra_refresh=0 / rc_lookahead=60 / rc=crf / mbtree=1 / crf=17.0 / qcomp=0.60 / qpmin=0 / qpmax=69 / qpstep=4 / ip_ratio=1.40 / aq=1:1.00
Language : English
Default : Yes
Forced : No

Audio
ID : 2
Format : DTS XLL
Format/Info : Digital Theater Systems
Commercial name : DTS-HD Master Audio
Codec ID : A_DTS
Duration : 1 h 30 min
Bit rate mode : Variable
Bit rate : 1 737 kb/s
Channel(s) : 6 channels
Channel layout : C L R Ls Rs LFE
Sampling rate : 48.0 kHz
Frame rate : 93.750 FPS (512 SPF)
Bit depth : 16 bits
Compression mode : Lossless
Stream size : 1.10 GiB (26%)
Language : English
Default : Yes
Forced : No

Text #1
ID : 3
Format : PGS
Muxing mode : zlib
Codec ID : S_HDMV/PGS
Codec ID/Info : Picture based subtitle format used on BDs/HD-DVDs
Duration : 1 h 21 min
Bit rate : 35.0 kb/s
Count of elements : 2204
Stream size : 20.4 MiB (0%)
Language : German
Default : No
Forced : No

Text #2
ID : 4
Format : PGS
Muxing mode : zlib
Codec ID : S_HDMV/PGS
Codec ID/Info : Picture based subtitle format used on BDs/HD-DVDs
Duration : 2 s 670 ms
Bit rate : 33.1 kb/s
Count of elements : 2
Stream size : 10.8 KiB (0%)
Language : German
Default : No
Forced : No

Menu
00:00:00.000 : en:Chapter 01
00:07:18.021 : en:Chapter 02
00:14:45.760 : en:Chapter 03
00:23:51.347 : en:Chapter 04
00:29:02.908 : en:Chapter 05
00:43:00.036 : en:Chapter 06
00:48:57.226 : en:Chapter 07
00:53:57.276 : en:Chapter 08
01:03:24.718 : en:Chapter 09
01:07:46.437 : en:Chapter 10
01:15:11.632 : en:Chapter 11
01:24:23.016 : en:Chapter 12
01:30:17.412 : en:Chapter 13

Readme/Password

Password & My Message

Screenshots