Fast Download Mirrors

Snake Eyes: G.I. Joe Origins (2021) • Movie | 1080p.BluRay.REMUX.AVC.Atmos-TRiToN

Snake Eyes: G.I. Joe Origins (2021) • Movie
Snake Eyes (2021) 121min | Action, Adventure, Fantasy, Sci-Fi, Thriller | July 23, 2021 (United States) Summary: A G.I. Joe spin-off centered around the character of Snake Eyes.
Countries: Canada, United StatesLanguages: English

A G.I. Joe spin-off centered around the character of Snake Eyes.

Mirrors: Gdrive Index, 1fichier, Gdrive[GDTOT, Sharer]
Format: MKV
Credits: TRiToN

Download


Complete name                            : Snake.Eyes.G.I.Joe.Origins.2021.1080p.BluRay.REMUX.AVC.Atmos-TRiToN.mkv
Format                                   : Matroska
Format version                           : Version 4
File size                                : 27.6 GiB
Duration                                 : 2 h 1 min
Overall bit rate mode                    : Variable
Overall bit rate                         : 32.5 Mb/s
Movie name                               : Snake Eyes: G.I. Joe Origins (2021)
Encoded date                             : UTC 2021-10-12 03:56:57
Writing application                      : mkvmerge v62.0.0 ('Apollo') 64-bit
Writing library                          : libebml v1.4.2 + libmatroska v1.6.4
IMDB                                     : tt8404256
TMDB                                     : movie/568620

Video
ID                                       : 1
Format                                   : AVC
Format/Info                              : Advanced Video Codec
Format profile                           : High@L4.1
Format settings                          : CABAC / 4 Ref Frames
Format settings, CABAC                   : Yes
Format settings, Reference frames        : 4 frames
Codec ID                                 : V_MPEG4/ISO/AVC
Duration                                 : 2 h 1 min
Bit rate mode                            : Variable
Bit rate                                 : 27.2 Mb/s
Maximum bit rate                         : 29.8 Mb/s
Width                                    : 1 920 pixels
Height                                   : 1 080 pixels
Display aspect ratio                     : 16:9
Frame rate mode                          : Constant
Frame rate                               : 23.976 (24000/1001) FPS
Color space                              : YUV
Chroma subsampling                       : 4:2:0
Bit depth                                : 8 bits
Scan type                                : Progressive
Bits/(Pixel*Frame)                       : 0.547
Stream size                              : 23.0 GiB (84%)
Title                                    : MPEG-4 AVC Video / 27317 kbps / 1080p / 23.976 fps / 16:9 / High Profile 4.1
Language                                 : English
Default                                  : Yes
Forced                                   : No

Audio #1
ID                                       : 2
Format                                   : MLP FBA 16-ch
Format/Info                              : Meridian Lossless Packing FBA with 16-channel presentation
Commercial name                          : Dolby TrueHD with Dolby Atmos
Codec ID                                 : A_TRUEHD
Duration                                 : 2 h 1 min
Bit rate mode                            : Variable
Bit rate                                 : 4 363 kb/s
Maximum bit rate                         : 7 854 kb/s
Channel(s)                               : 8 channels
Channel layout                           : L R C LFE Ls Rs Lb Rb
Sampling rate                            : 48.0 kHz
Frame rate                               : 1 200.000 FPS (40 SPF)
Compression mode                         : Lossless
Stream size                              : 3.70 GiB (13%)
Title                                    : Dolby TrueHD/Atmos Audio / 7.1 / 48 kHz / 4363 kbps / 24-bit
Language                                 : English
Default                                  : Yes
Forced                                   : No
Number of dynamic objects                : 11
Bed channel count                        : 1 channel
Bed channel configuration                : LFE

Audio #2
ID                                       : 3
Format                                   : AC-3
Format/Info                              : Audio Coding 3
Commercial name                          : Dolby Digital
Format settings                          : Dolby Surround EX
Codec ID                                 : A_AC3
Duration                                 : 2 h 1 min
Bit rate mode                            : Constant
Bit rate                                 : 640 kb/s
Channel(s)                               : 6 channels
Channel layout                           : L R C LFE Ls Rs
Sampling rate                            : 48.0 kHz
Frame rate                               : 31.250 FPS (1536 SPF)
Compression mode                         : Lossy
Stream size                              : 556 MiB (2%)
Title                                    : Compatibility Track / Dolby Digital Audio / 5.1-EX / 48 kHz / 640 kbps
Language                                 : English
Service kind                             : Complete Main
Default                                  : No
Forced                                   : No

Text #1
ID                                       : 4
Format                                   : PGS
Codec ID                                 : S_HDMV/PGS
Codec ID/Info                            : Picture based subtitle format used on BDs/HD-DVDs
Duration                                 : 1 h 52 min
Bit rate                                 : 18.7 kb/s
Count of elements                        : 1552
Stream size                              : 15.0 MiB (0%)
Language                                 : English
Default                                  : No
Forced                                   : No

Text #2
ID                                       : 5
Format                                   : PGS
Codec ID                                 : S_HDMV/PGS
Codec ID/Info                            : Picture based subtitle format used on BDs/HD-DVDs
Duration                                 : 1 h 52 min
Bit rate                                 : 21.6 kb/s
Count of elements                        : 1940
Stream size                              : 17.4 MiB (0%)
Title                                    : SDH
Language                                 : English
Default                                  : No
Forced                                   : No

Text #3
ID                                       : 6
Format                                   : PGS
Codec ID                                 : S_HDMV/PGS
Codec ID/Info                            : Picture based subtitle format used on BDs/HD-DVDs
Duration                                 : 2 h 0 min
Bit rate                                 : 17.2 kb/s
Count of elements                        : 1594
Stream size                              : 14.7 MiB (0%)
Language                                 : Danish
Default                                  : No
Forced                                   : No

Text #4
ID                                       : 7
Format                                   : PGS
Codec ID                                 : S_HDMV/PGS
Codec ID/Info                            : Picture based subtitle format used on BDs/HD-DVDs
Duration                                 : 2 h 0 min
Bit rate                                 : 18.2 kb/s
Count of elements                        : 1426
Stream size                              : 15.6 MiB (0%)
Language                                 : Dutch
Default                                  : No
Forced                                   : No

Text #5
ID                                       : 8
Format                                   : PGS
Codec ID                                 : S_HDMV/PGS
Codec ID/Info                            : Picture based subtitle format used on BDs/HD-DVDs
Duration                                 : 2 h 0 min
Bit rate                                 : 18.0 kb/s
Count of elements                        : 1508
Stream size                              : 15.4 MiB (0%)
Language                                 : Finnish
Default                                  : No
Forced                                   : No

Text #6
ID                                       : 9
Format                                   : PGS
Codec ID                                 : S_HDMV/PGS
Codec ID/Info                            : Picture based subtitle format used on BDs/HD-DVDs
Duration                                 : 2 h 0 min
Bit rate                                 : 17.0 kb/s
Count of elements                        : 1570
Stream size                              : 14.6 MiB (0%)
Language                                 : French
Default                                  : No
Forced                                   : No

Text #7
ID                                       : 10
Format                                   : PGS
Codec ID                                 : S_HDMV/PGS
Codec ID/Info                            : Picture based subtitle format used on BDs/HD-DVDs
Duration                                 : 2 h 0 min
Bit rate                                 : 18.9 kb/s
Count of elements                        : 1588
Stream size                              : 16.2 MiB (0%)
Title                                    : Canadian
Language                                 : French
Default                                  : No
Forced                                   : No

Text #8
ID                                       : 11
Format                                   : PGS
Codec ID                                 : S_HDMV/PGS
Codec ID/Info                            : Picture based subtitle format used on BDs/HD-DVDs
Duration                                 : 2 h 0 min
Bit rate                                 : 19.2 kb/s
Count of elements                        : 1552
Stream size                              : 16.5 MiB (0%)
Language                                 : German
Default                                  : No
Forced                                   : No

Text #9
ID                                       : 12
Format                                   : PGS
Codec ID                                 : S_HDMV/PGS
Codec ID/Info                            : Picture based subtitle format used on BDs/HD-DVDs
Duration                                 : 2 h 0 min
Bit rate                                 : 17.3 kb/s
Count of elements                        : 1524
Stream size                              : 14.9 MiB (0%)
Language                                 : Italian
Default                                  : No
Forced                                   : No

Text #10
ID                                       : 13
Format                                   : PGS
Codec ID                                 : S_HDMV/PGS
Codec ID/Info                            : Picture based subtitle format used on BDs/HD-DVDs
Duration                                 : 2 h 0 min
Bit rate                                 : 16.5 kb/s
Count of elements                        : 1584
Stream size                              : 14.1 MiB (0%)
Language                                 : Norwegian
Default                                  : No
Forced                                   : No

Text #11
ID                                       : 14
Format                                   : PGS
Codec ID                                 : S_HDMV/PGS
Codec ID/Info                            : Picture based subtitle format used on BDs/HD-DVDs
Duration                                 : 2 h 0 min
Bit rate                                 : 16.6 kb/s
Count of elements                        : 1592
Stream size                              : 14.3 MiB (0%)
Language                                 : Portuguese
Default                                  : No
Forced                                   : No

Text #12
ID                                       : 15
Format                                   : PGS
Codec ID                                 : S_HDMV/PGS
Codec ID/Info                            : Picture based subtitle format used on BDs/HD-DVDs
Duration                                 : 2 h 0 min
Bit rate                                 : 18.4 kb/s
Count of elements                        : 1570
Stream size                              : 15.8 MiB (0%)
Title                                    : Castilian
Language                                 : Spanish
Default                                  : No
Forced                                   : No

Text #13
ID                                       : 16
Format                                   : PGS
Codec ID                                 : S_HDMV/PGS
Codec ID/Info                            : Picture based subtitle format used on BDs/HD-DVDs
Duration                                 : 2 h 0 min
Bit rate                                 : 18.2 kb/s
Count of elements                        : 1566
Stream size                              : 15.6 MiB (0%)
Title                                    : Latin American
Language                                 : Spanish
Default                                  : No
Forced                                   : No

Text #14
ID                                       : 17
Format                                   : PGS
Codec ID                                 : S_HDMV/PGS
Codec ID/Info                            : Picture based subtitle format used on BDs/HD-DVDs
Duration                                 : 2 h 0 min
Bit rate                                 : 17.2 kb/s
Count of elements                        : 1514
Stream size                              : 14.8 MiB (0%)
Language                                 : Swedish
Default                                  : No
Forced                                   : No

Text #15
ID                                       : 18
Format                                   : PGS
Codec ID                                 : S_HDMV/PGS
Codec ID/Info                            : Picture based subtitle format used on BDs/HD-DVDs
Duration                                 : 2 h 0 min
Bit rate                                 : 18.4 kb/s
Count of elements                        : 1588
Stream size                              : 15.8 MiB (0%)
Language                                 : Turkish
Default                                  : No
Forced                                   : No

Menu
00:00:00.000                             : en:Chapter 01
00:10:17.367                             : en:Chapter 02
00:19:39.887                             : en:Chapter 03
00:28:50.062                             : en:Chapter 04
00:37:50.977                             : en:Chapter 05
00:43:39.867                             : en:Chapter 06
00:54:53.790                             : en:Chapter 07
01:03:18.920                             : en:Chapter 08
01:14:04.440                             : en:Chapter 09
01:23:59.117                             : en:Chapter 10
01:29:09.219                             : en:Chapter 11
01:36:39.293                             : en:Chapter 12
01:46:26.922                             : en:Chapter 13
01:53:51.533                             : en:Chapter 14


SNAKE EYES: G.I. JOE ORIGINS (2021) • MOVIE | 1080p + 2160p - WEB-DL
https://ambassadorddl.site/snake-eyes-g-i-joe-origins-2021-movie/
Password/Readme

Password & My Message