Fast Download Mirrors

Snoopy Presents: For Auld Lang Syne (2021) • TVSpecial | 2160p.ATVP.WEB-DL.x265.10bit.HDR.DDP5.1.Atmos-TEPES [7.8GB]

Snoopy Presents: For Auld Lang Syne (2021)
Snoopy Presents: For Auld Lang Syne Animation, Comedy, Family | December 10, 2021 (United States) Summary: After finding out her grandmother won’t be visiting for Christmas, Lucy decides to cheer herself up by throwing the ultimate New Year’s Eve party. Meanwhile, Charlie Brown tries to fulfill o... Read all
Countries: CanadaLanguages: English

After finding out her grandmother won’t be visiting for Christmas, Lucy decides to cheer herself up by throwing the ultimate New Year’s Eve party. Meanwhile, Charlie Brown tries to fulfill one of his resolutions before the clock strikes midnight.

Mirrors: MirrorAce, MultiUp, Gdrive[GDTOT, Sharer, GAdrive]
Format: MKV
Credits: TEPES

Download

Video
ID : 1
Format : HEVC
Format/Info : High Efficiency Video Coding
Format profile : Main 10@L5@High
HDR format : SMPTE ST 2086, HDR10 compatible
Codec ID : V_MPEGH/ISO/HEVC
Duration : 38 min 25 s
Bit rate : 28.3 Mb/s
Width : 3 840 pixels
Height : 1 920 pixels
Display aspect ratio : 2.000
Frame rate mode : Constant
Frame rate : 23.976 FPS
Color space : YUV
Chroma subsampling : 4:2:0 (Type 2)
Bit depth : 10 bits
Bits/(Pixel*Frame) : 0.160
Stream size : 7.59 GiB (97%)
Language : English
Default : Yes
Forced : No
Color range : Limited
Color primaries : BT.2020
Transfer characteristics : PQ
Matrix coefficients : BT.2020 non-constant
Mastering display color primaries : Display P3
Mastering display luminance : min: 0.0050 cd/m2, max: 1000 cd/m2
Maximum Content Light Level : 603 cd/m2
Maximum Frame-Average Light Level : 187 cd/m2

Audio
ID : 2
Format : E-AC-3 JOC
Format/Info : Enhanced AC-3 with Joint Object Coding
Commercial name : Dolby Digital Plus with Dolby Atmos
Codec ID : A_EAC3
Duration : 38 min 25 s
Bit rate mode : Constant
Bit rate : 768 kb/s
Channel(s) : 6 channels
Channel layout : L R C LFE Ls Rs
Sampling rate : 48.0 kHz
Frame rate : 31.250 FPS (1536 SPF)
Compression mode : Lossy
Stream size : 211 MiB (3%)
Language : English
Service kind : Complete Main
Default : Yes
Forced : No
Complexity index : 16
Number of dynamic objects : 15
Bed channel count : 1 channel
Bed channel configuration : LFE

Text #1
ID : 3
Format : UTF-8
Codec ID : S_TEXT/UTF8
Codec ID/Info : UTF-8 Plain Text
Duration : 36 min 23 s
Bit rate : 68 b/s
Count of elements : 480
Stream size : 18.2 KiB (0%)
Language : English
Default : No
Forced : No

Text #2
ID : 4
Format : UTF-8
Codec ID : S_TEXT/UTF8
Codec ID/Info : UTF-8 Plain Text
Duration : 36 min 23 s
Bit rate : 80 b/s
Count of elements : 609
Stream size : 21.5 KiB (0%)
Title : SDH
Language : English
Default : No
Forced : No

Text #3
ID : 5
Format : UTF-8
Codec ID : S_TEXT/UTF8
Codec ID/Info : UTF-8 Plain Text
Duration : 38 min 16 s
Bit rate : 91 b/s
Count of elements : 501
Stream size : 25.5 KiB (0%)
Language : Arabic
Default : No
Forced : No

Text #4
ID : 6
Format : UTF-8
Codec ID : S_TEXT/UTF8
Codec ID/Info : UTF-8 Plain Text
Duration : 38 min 12 s
Bit rate : 95 b/s
Count of elements : 477
Stream size : 26.8 KiB (0%)
Language : Bulgarian
Default : No
Forced : No

Text #5
ID : 7
Format : UTF-8
Codec ID : S_TEXT/UTF8
Codec ID/Info : UTF-8 Plain Text
Duration : 38 min 16 s
Bit rate : 59 b/s
Count of elements : 498
Stream size : 16.6 KiB (0%)
Title : Simplified
Language : Chinese
Default : No
Forced : No

Text #6
ID : 8
Format : UTF-8
Codec ID : S_TEXT/UTF8
Codec ID/Info : UTF-8 Plain Text
Duration : 38 min 16 s
Bit rate : 59 b/s
Count of elements : 501
Stream size : 16.7 KiB (0%)
Title : Traditional
Language : Chinese
Default : No
Forced : No

Text #7
ID : 9
Format : UTF-8
Codec ID : S_TEXT/UTF8
Codec ID/Info : UTF-8 Plain Text
Duration : 38 min 16 s
Bit rate : 60 b/s
Count of elements : 493
Stream size : 16.9 KiB (0%)
Language : Czech
Default : No
Forced : No

Text #8
ID : 10
Format : UTF-8
Codec ID : S_TEXT/UTF8
Codec ID/Info : UTF-8 Plain Text
Duration : 38 min 16 s
Bit rate : 66 b/s
Count of elements : 465
Stream size : 18.5 KiB (0%)
Language : Danish
Default : No
Forced : No

Text #9
ID : 11
Format : UTF-8
Codec ID : S_TEXT/UTF8
Codec ID/Info : UTF-8 Plain Text
Duration : 38 min 16 s
Bit rate : 68 b/s
Count of elements : 465
Stream size : 19.2 KiB (0%)
Language : German
Default : No
Forced : No

Text #10
ID : 12
Format : UTF-8
Codec ID : S_TEXT/UTF8
Codec ID/Info : UTF-8 Plain Text
Duration : 38 min 16 s
Bit rate : 102 b/s
Count of elements : 486
Stream size : 28.7 KiB (0%)
Language : Greek
Default : No
Forced : No

Text #11
ID : 13
Format : UTF-8
Codec ID : S_TEXT/UTF8
Codec ID/Info : UTF-8 Plain Text
Duration : 38 min 16 s
Bit rate : 67 b/s
Count of elements : 497
Stream size : 19.0 KiB (0%)
Title : Latin American
Language : Spanish
Default : No
Forced : No

Text #12
ID : 14
Format : UTF-8
Codec ID : S_TEXT/UTF8
Codec ID/Info : UTF-8 Plain Text
Duration : 38 min 12 s
Bit rate : 64 b/s
Count of elements : 497
Stream size : 18.2 KiB (0%)
Language : Spanish
Default : No
Forced : No

Text #13
ID : 15
Format : UTF-8
Codec ID : S_TEXT/UTF8
Codec ID/Info : UTF-8 Plain Text
Duration : 38 min 16 s
Bit rate : 58 b/s
Count of elements : 457
Stream size : 16.4 KiB (0%)
Language : Estonian
Default : No
Forced : No

Text #14
ID : 16
Format : UTF-8
Codec ID : S_TEXT/UTF8
Codec ID/Info : UTF-8 Plain Text
Duration : 38 min 16 s
Bit rate : 59 b/s
Count of elements : 460
Stream size : 16.7 KiB (0%)
Language : Finnish
Default : No
Forced : No

Text #15
ID : 17
Format : UTF-8
Codec ID : S_TEXT/UTF8
Codec ID/Info : UTF-8 Plain Text
Duration : 37 min 55 s
Bit rate : 62 b/s
Count of elements : 553
Stream size : 17.4 KiB (0%)
Title : Canadian
Language : French
Default : No
Forced : No

Text #16
ID : 18
Format : UTF-8
Codec ID : S_TEXT/UTF8
Codec ID/Info : UTF-8 Plain Text
Duration : 37 min 55 s
Bit rate : 62 b/s
Count of elements : 553
Stream size : 17.4 KiB (0%)
Language : French
Default : No
Forced : No

Text #17
ID : 19
Format : UTF-8
Codec ID : S_TEXT/UTF8
Codec ID/Info : UTF-8 Plain Text
Duration : 38 min 16 s
Bit rate : 87 b/s
Count of elements : 501
Stream size : 24.4 KiB (0%)
Language : Hebrew
Default : No
Forced : No

Text #18
ID : 20
Format : UTF-8
Codec ID : S_TEXT/UTF8
Codec ID/Info : UTF-8 Plain Text
Duration : 38 min 16 s
Bit rate : 181 b/s
Count of elements : 501
Stream size : 50.9 KiB (0%)
Language : Hindi
Default : No
Forced : No

Text #19
ID : 21
Format : UTF-8
Codec ID : S_TEXT/UTF8
Codec ID/Info : UTF-8 Plain Text
Duration : 38 min 16 s
Bit rate : 58 b/s
Count of elements : 486
Stream size : 16.5 KiB (0%)
Language : Hungarian
Default : No
Forced : No

Text #20
ID : 22
Format : UTF-8
Codec ID : S_TEXT/UTF8
Codec ID/Info : UTF-8 Plain Text
Duration : 38 min 16 s
Bit rate : 60 b/s
Count of elements : 497
Stream size : 16.9 KiB (0%)
Language : Indonesian
Default : No
Forced : No

Text #21
ID : 23
Format : UTF-8
Codec ID : S_TEXT/UTF8
Codec ID/Info : UTF-8 Plain Text
Duration : 38 min 12 s
Bit rate : 68 b/s
Count of elements : 498
Stream size : 19.1 KiB (0%)
Language : Italian
Default : No
Forced : No

Text #22
ID : 24
Format : UTF-8
Codec ID : S_TEXT/UTF8
Codec ID/Info : UTF-8 Plain Text
Duration : 38 min 12 s
Bit rate : 70 b/s
Count of elements : 539
Stream size : 19.7 KiB (0%)
Language : Japanese
Default : No
Forced : No

Text #23
ID : 25
Format : UTF-8
Codec ID : S_TEXT/UTF8
Codec ID/Info : UTF-8 Plain Text
Duration : 38 min 16 s
Bit rate : 70 b/s
Count of elements : 500
Stream size : 19.9 KiB (0%)
Language : Korean
Default : No
Forced : No

Text #24
ID : 26
Format : UTF-8
Codec ID : S_TEXT/UTF8
Codec ID/Info : UTF-8 Plain Text
Duration : 37 min 55 s
Bit rate : 62 b/s
Count of elements : 495
Stream size : 17.4 KiB (0%)
Language : Lithuanian
Default : No
Forced : No

Text #25
ID : 27
Format : UTF-8
Codec ID : S_TEXT/UTF8
Codec ID/Info : UTF-8 Plain Text
Duration : 38 min 16 s
Bit rate : 61 b/s
Count of elements : 483
Stream size : 17.3 KiB (0%)
Language : Latvian
Default : No
Forced : No

Text #26
ID : 28
Format : UTF-8
Codec ID : S_TEXT/UTF8
Codec ID/Info : UTF-8 Plain Text
Duration : 38 min 16 s
Bit rate : 62 b/s
Count of elements : 498
Stream size : 17.5 KiB (0%)
Language : Malay
Default : No
Forced : No

Text #27
ID : 29
Format : UTF-8
Codec ID : S_TEXT/UTF8
Codec ID/Info : UTF-8 Plain Text
Duration : 37 min 55 s
Bit rate : 58 b/s
Count of elements : 447
Stream size : 16.2 KiB (0%)
Language : Dutch
Default : No
Forced : No

Text #28
ID : 30
Format : UTF-8
Codec ID : S_TEXT/UTF8
Codec ID/Info : UTF-8 Plain Text
Duration : 37 min 55 s
Bit rate : 63 b/s
Count of elements : 476
Stream size : 17.7 KiB (0%)
Language : Dutch
Default : No
Forced : No

Text #29
ID : 31
Format : UTF-8
Codec ID : S_TEXT/UTF8
Codec ID/Info : UTF-8 Plain Text
Duration : 38 min 16 s
Bit rate : 59 b/s
Count of elements : 446
Stream size : 16.7 KiB (0%)
Language : Norwegian
Default : No
Forced : No

Text #30
ID : 32
Format : UTF-8
Codec ID : S_TEXT/UTF8
Codec ID/Info : UTF-8 Plain Text
Duration : 38 min 16 s
Bit rate : 57 b/s
Count of elements : 479
Stream size : 16.2 KiB (0%)
Language : Polish
Default : No
Forced : No

Text #31
ID : 33
Format : UTF-8
Codec ID : S_TEXT/UTF8
Codec ID/Info : UTF-8 Plain Text
Duration : 38 min 16 s
Bit rate : 62 b/s
Count of elements : 487
Stream size : 17.5 KiB (0%)
Language : Portuguese
Default : No
Forced : No

Text #32
ID : 34
Format : UTF-8
Codec ID : S_TEXT/UTF8
Codec ID/Info : UTF-8 Plain Text
Duration : 38 min 16 s
Bit rate : 54 b/s
Count of elements : 499
Stream size : 15.3 KiB (0%)
Title : Brazilian
Language : Portuguese
Default : No
Forced : No

Text #33
ID : 35
Format : UTF-8
Codec ID : S_TEXT/UTF8
Codec ID/Info : UTF-8 Plain Text
Duration : 38 min 16 s
Bit rate : 107 b/s
Count of elements : 501
Stream size : 30.1 KiB (0%)
Language : Russian
Default : No
Forced : No

Text #34
ID : 36
Format : UTF-8
Codec ID : S_TEXT/UTF8
Codec ID/Info : UTF-8 Plain Text
Duration : 38 min 12 s
Bit rate : 60 b/s
Count of elements : 480
Stream size : 16.9 KiB (0%)
Language : Slovak
Default : No
Forced : No

Text #35
ID : 37
Format : UTF-8
Codec ID : S_TEXT/UTF8
Codec ID/Info : UTF-8 Plain Text
Duration : 38 min 16 s
Bit rate : 52 b/s
Count of elements : 454
Stream size : 14.8 KiB (0%)
Language : Slovenian
Default : No
Forced : No

Text #36
ID : 38
Format : UTF-8
Codec ID : S_TEXT/UTF8
Codec ID/Info : UTF-8 Plain Text
Duration : 38 min 16 s
Bit rate : 63 b/s
Count of elements : 472
Stream size : 17.8 KiB (0%)
Language : Swedish
Default : No
Forced : No

Text #37
ID : 39
Format : UTF-8
Codec ID : S_TEXT/UTF8
Codec ID/Info : UTF-8 Plain Text
Duration : 38 min 16 s
Bit rate : 199 b/s
Count of elements : 500
Stream size : 55.8 KiB (0%)
Language : Tamil
Default : No
Forced : No

Text #38
ID : 40
Format : UTF-8
Codec ID : S_TEXT/UTF8
Codec ID/Info : UTF-8 Plain Text
Duration : 38 min 16 s
Bit rate : 185 b/s
Count of elements : 500
Stream size : 52.1 KiB (0%)
Language : Telugu
Default : No
Forced : No

Text #39
ID : 41
Format : UTF-8
Codec ID : S_TEXT/UTF8
Codec ID/Info : UTF-8 Plain Text
Duration : 38 min 16 s
Bit rate : 158 b/s
Count of elements : 500
Stream size : 44.5 KiB (0%)
Language : Thai
Default : No
Forced : No

Text #40
ID : 42
Format : UTF-8
Codec ID : S_TEXT/UTF8
Codec ID/Info : UTF-8 Plain Text
Duration : 38 min 16 s
Bit rate : 66 b/s
Count of elements : 498
Stream size : 18.6 KiB (0%)
Language : Turkish
Default : No
Forced : No

Text #41
ID : 43
Format : UTF-8
Codec ID : S_TEXT/UTF8
Codec ID/Info : UTF-8 Plain Text
Duration : 38 min 16 s
Bit rate : 91 b/s
Count of elements : 501
Stream size : 25.6 KiB (0%)
Language : Ukrainian
Default : No
Forced : No

Text #42
ID : 44
Format : UTF-8
Codec ID : S_TEXT/UTF8
Codec ID/Info : UTF-8 Plain Text
Duration : 38 min 16 s
Bit rate : 86 b/s
Count of elements : 499
Stream size : 24.3 KiB (0%)
Language : Vietnamese
Default : No
Forced : No

Text #43
ID : 45
Format : UTF-8
Codec ID : S_TEXT/UTF8
Codec ID/Info : UTF-8 Plain Text
Duration : 38 min 16 s
Bit rate : 59 b/s
Count of elements : 501
Stream size : 16.7 KiB (0%)
Title : Cantonese
Language : Chinese
Default : No
Forced : No

Readme/Password

Password & My Message

Screenshots