Fast Download Mirrors

Snowpiercer (2020-) • TVSeries | S03E05.A.New.Life.1080p.AMZN.WEB-DL.DDP5.1.H.264-NOSiViD [2.46 GB]

Snowpiercer Action, Drama, Sci-Fi, Thriller | May 17, 2020 (United States) Summary: Seven years after the world has become a frozen wasteland, the remnants of humanity inhabit a perpetually-moving train that circles the globe, where class warfare, social injustice and the p... Read all
Countries: United StatesLanguages: English

Seven years after the world has become a frozen wasteland, the remnants of humanity inhabit a perpetually-moving train that circles the globe, where class warfare, social injustice and the politics of survival play out.

Mirrors: GDrive [Gadrive, GDToT, Index, Sharer], MultiUp
Format: MKV
Credits: NOSiViD
Seasons: Ongoing

Download

General
Unique ID                                : 196640853487754884990272386763596248065 (0x93EFA69AF8F7411744D7F6E05CE43401)
Complete name                            : Snowpiercer.S03E05.A.New.Life.1080p.AMZN.WEB-DL.DDP5.1.H.264-NOSiViD.mkv
Format                                   : Matroska
Format version                           : Version 4
File size                                : 2.46 GiB
Duration                                 : 42 min 57 s
Overall bit rate                         : 8 198 kb/s
Movie name                               : Snowpiercer - S03E05 - A New Life
Writing application                      : mkvmerge v64.0.0 ('Willows') 64-bit
Writing library                          : libebml v1.4.2 + libmatroska v1.6.4
IMDB                                     : tt6156584
TMDB                                     : tv/79680
TVDB                                     : 364928

Video
ID                                       : 1
Format                                   : AVC
Format/Info                              : Advanced Video Codec
Format profile                           : High@L4
Format settings                          : CABAC / 4 Ref Frames
Format settings, CABAC                   : Yes
Format settings, Reference frames        : 4 frames
Codec ID                                 : V_MPEG4/ISO/AVC
Duration                                 : 42 min 57 s
Bit rate mode                            : Constant
Bit rate                                 : 7 556 kb/s
Nominal bit rate                         : 10 000 kb/s
Width                                    : 1 920 pixels
Height                                   : 1 080 pixels
Display aspect ratio                     : 16:9
Frame rate mode                          : Constant
Frame rate                               : 23.976 (24000/1001) FPS
Color space                              : YUV
Chroma subsampling                       : 4:2:0
Bit depth                                : 8 bits
Scan type                                : Progressive
Bits/(Pixel*Frame)                       : 0.152
Stream size                              : 2.27 GiB (92%)
Default                                  : No
Forced                                   : No
Color range                              : Limited
Color primaries                          : BT.709
Transfer characteristics                 : BT.709
Matrix coefficients                      : BT.709

Audio
ID                                       : 2
Format                                   : E-AC-3
Format/Info                              : Enhanced AC-3
Commercial name                          : Dolby Digital Plus
Codec ID                                 : A_EAC3
Duration                                 : 42 min 57 s
Bit rate mode                            : Constant
Bit rate                                 : 640 kb/s
Channel(s)                               : 6 channels
Channel layout                           : L R C LFE Ls Rs
Sampling rate                            : 48.0 kHz
Frame rate                               : 31.250 FPS (1536 SPF)
Compression mode                         : Lossy
Stream size                              : 197 MiB (8%)
Language                                 : English
Service kind                             : Complete Main
Default                                  : No
Forced                                   : No

Text #1
ID                                       : 3
Format                                   : UTF-8
Codec ID                                 : S_TEXT/UTF8
Codec ID/Info                            : UTF-8 Plain Text
Duration                                 : 41 min 15 s
Bit rate                                 : 67 b/s
Count of elements                        : 748
Stream size                              : 20.5 KiB (0%)
Language                                 : English
Default                                  : No
Forced                                   : No

Text #2
ID                                       : 4
Format                                   : UTF-8
Codec ID                                 : S_TEXT/UTF8
Codec ID/Info                            : UTF-8 Plain Text
Duration                                 : 42 min 35 s
Bit rate                                 : 78 b/s
Count of elements                        : 914
Stream size                              : 24.6 KiB (0%)
Title                                    : SDH
Language                                 : English
Default                                  : No
Forced                                   : No

Menu
00:01:29.000                             : en:Intro
00:42:24.000                             : en:Credits

Readme/Password

Password & My Message