Fast Download Mirrors

Sooryavanshi (2021) • Movie | 1080p.NF.WEB-DL.DD+5.1.x264-Telly [6.9GB]

Sooryavanshi (2021) • Movie
Sooryavanshi Action, Crime, Thriller | November 5, 2021 (India) Summary: Sooryavanshi traces the acts and serious antics of DCP Veer Sooryavanshi, the chief of the Anti-Terrorism Squad in India.
Countries: IndiaLanguages: Hindi

Sooryavanshi traces the acts and serious antics of DCP Veer Sooryavanshi, the chief of the Anti-Terrorism Squad in India.

Mirrors: MirrorAce, MultiUp, Gdrive[GDTOT, Sharer, GAdrive]
Format: MKV
Credits: Telly

Download

General 
Unique ID : 128111107586789296623963750463019569941 (0x60614D44CBE7339240960FF96AC25315) 
Complete name : Sooryavanshi.2021.1080p.NF.WEB-DL.DD+5.1.x264-Telly.mkv 
Format : Matroska 
Format version : Version 4 
File size : 6.94 GiB 
Duration : 2 h 23 min 
Overall bit rate mode : Variable 
Overall bit rate : 6 903 kb/s 
Movie name : Telly 
Encoded date : UTC 2021-12-02 18:33:24 
Writing application : mkvmerge v59.0.0 ('Shining Star') 64-bit 
Writing library : libebml v1.4.2 + libmatroska v1.6.4 

Video 
ID : 1 
Format : AVC 
Format/Info : Advanced Video Codec 
Format profile : Main@L4 
Format settings : CABAC / 3 Ref Frames 
Format settings, CABAC : Yes 
Format settings, Reference frames : 3 frames 
Format settings, GOP : M=3, N=48 
Codec ID : V_MPEG4/ISO/AVC 
Duration : 2 h 23 min 
Bit rate mode : Variable 
Bit rate : 3 699 kb/s 
Nominal bit rate : 3 406 kb/s 
Maximum bit rate : 7 665 kb/s 
Width : 1 920 pixels 
Height : 1 080 pixels 
Display aspect ratio : 16:9 
Frame rate mode : Constant 
Frame rate : 24.000 FPS 
Color space : YUV 
Chroma subsampling : 4:2:0 
Bit depth : 8 bits 
Scan type : Progressive 
Bits/(Pixel*Frame) : 0.074 
Stream size : 3.72 GiB (54%) 
Writing library : x264 core 148 r2727 7d026e8 
Encoding settings : cabac=1 / ref=3 / deblock=1:0:0 / analyse=0x1:0x111 / me=umh / subme=10 / psy=1 / psy_rd=1.00:0.00 / mixed_ref=1 / me_range=24 / chroma_me=1 / trellis=2 / 8x8dct=0 / cqm=0 / deadzone=21,11 / fast_pskip=1 / chroma_qp_offset=-2 / threads=8 / lookahead_threads=1 / sliced_threads=0 / nr=0 / decimate=1 / interlaced=0 / bluray_compat=0 / stitchable=1 / constrained_intra=0 / bframes=2 / b_pyramid=0 / b_adapt=2 / b_bias=0 / direct=3 / weightb=1 / open_gop=0 / weightp=2 / keyint=250 / keyint_min=24 / scenecut=0 / intra_refresh=0 / rc_lookahead=48 / rc=2pass / mbtree=1 / bitrate=3406 / ratetol=1.0 / qcomp=0.50 / qpmin=6 / qpmax=51 / qpstep=4 / cplxblur=20.0 / qblur=0.5 / vbv_maxrate=7665 / vbv_bufsize=10220 / nal_hrd=vbr / filler=0 / ip_ratio=1.40 / aq=1:1.00 
Default : Yes 
Forced : No 

Audio #1 
ID : 2 
Format : E-AC-3 
Format/Info : Enhanced AC-3 
Commercial name : Dolby Digital Plus 
Codec ID : A_EAC3 
Duration : 2 h 23 min 
Bit rate mode : Constant 
Bit rate : 640 kb/s 
Channel(s) : 6 channels 
Channel layout : L R C LFE Ls Rs 
Sampling rate : 48.0 kHz 
Frame rate : 31.250 FPS (1536 SPF) 
Compression mode : Lossy 
Stream size : 658 MiB (9%) 
Title : Hindi 
Language : Hindi 
Service kind : Complete Main 
Default : Yes 
Forced : No 

Audio #2 
ID : 3 
Format : E-AC-3 
Format/Info : Enhanced AC-3 
Commercial name : Dolby Digital Plus 
Codec ID : A_EAC3 
Duration : 2 h 23 min 
Bit rate mode : Constant 
Bit rate : 640 kb/s 
Channel(s) : 6 channels 
Channel layout : L R C LFE Ls Rs 
Sampling rate : 48.0 kHz 
Frame rate : 31.250 FPS (1536 SPF) 
Compression mode : Lossy 
Stream size : 658 MiB (9%) 
Title : Tamil 
Language : Tamil 
Service kind : Complete Main 
Default : No 
Forced : No 

Audio #3 
ID : 4 
Format : E-AC-3 
Format/Info : Enhanced AC-3 
Commercial name : Dolby Digital Plus 
Codec ID : A_EAC3 
Duration : 2 h 23 min 
Bit rate mode : Constant 
Bit rate : 640 kb/s 
Channel(s) : 6 channels 
Channel layout : L R C LFE Ls Rs 
Sampling rate : 48.0 kHz 
Frame rate : 31.250 FPS (1536 SPF) 
Compression mode : Lossy 
Stream size : 658 MiB (9%) 
Title : Telugu 
Language : Telugu 
Service kind : Complete Main 
Default : No 
Forced : No 

Audio #4 
ID : 5 
Format : E-AC-3 
Format/Info : Enhanced AC-3 
Commercial name : Dolby Digital Plus 
Codec ID : A_EAC3 
Duration : 2 h 23 min 
Bit rate mode : Constant 
Bit rate : 640 kb/s 
Channel(s) : 6 channels 
Channel layout : L R C LFE Ls Rs 
Sampling rate : 48.0 kHz 
Frame rate : 31.250 FPS (1536 SPF) 
Compression mode : Lossy 
Stream size : 658 MiB (9%) 
Title : English 
Language : English 
Service kind : Complete Main 
Default : No 
Forced : No 

Audio #5 
ID : 6 
Format : E-AC-3 
Format/Info : Enhanced AC-3 
Commercial name : Dolby Digital Plus 
Codec ID : A_EAC3 
Duration : 2 h 23 min 
Bit rate mode : Constant 
Bit rate : 640 kb/s 
Channel(s) : 6 channels 
Channel layout : L R C LFE Ls Rs 
Sampling rate : 48.0 kHz 
Frame rate : 31.250 FPS (1536 SPF) 
Compression mode : Lossy 
Stream size : 658 MiB (9%) 
Title : Malayalam 
Language : Malayalam 
Service kind : Complete Main 
Default : No 
Forced : No 

Text #1 
ID : 7 
Format : UTF-8 
Codec ID : S_TEXT/UTF8 
Codec ID/Info : UTF-8 Plain Text 
Duration : 2 h 23 min 
Bit rate : 145 b/s 
Count of elements : 1756 
Stream size : 153 KiB (0%) 
Title : Hindi 
Language : Hindi 
Default : No 
Forced : No 

Text #2 
ID : 8 
Format : UTF-8 
Codec ID : S_TEXT/UTF8 
Codec ID/Info : UTF-8 Plain Text 
Duration : 2 h 22 min 
Bit rate : 44 b/s 
Count of elements : 1270 
Stream size : 46.3 KiB (0%) 
Title : English 
Language : English 
Default : No 
Forced : No 

Text #3 
ID : 9 
Format : UTF-8 
Codec ID : S_TEXT/UTF8 
Codec ID/Info : UTF-8 Plain Text 
Duration : 2 h 22 min 
Bit rate : 44 b/s 
Count of elements : 1270 
Stream size : 46.3 KiB (0%) 
Title : English 
Language : English 
Default : No 
Forced : No

Readme/Password

Password & My Message

Screenshots