Fast Download Mirrors

Space Jam: A New Legacy (2021) • Movie | BluRay + WebDL

Space Jam: A New Legacy (2021) • Movie
Space Jam: A New Legacy (2021) 115min | Animation, Adventure, Comedy, Family, Fantasy, Sci-Fi, Sport | July 16, 2021 (United States) Summary:
Countries: United StatesLanguages: English

A rogue artificial intelligence kidnaps the son of famed basketball player LeBron James, who then has to work with Bugs Bunny to win a basketball game.

Mirrors: MultiUp, 1fichier, GDrive[Gdtot, Sharer]
Format: MKV, MP4
Credits: RARBG

Download – [BluRay]

Video
ID : 1
Format : AVC
Format/Info : Advanced Video Codec
Format profile : High@L4.1
Format settings : CABAC / 4 Ref Frames
Format settings, CABAC : Yes
Format settings, Reference frames : 4 frames
Codec ID : V_MPEG4/ISO/AVC
Duration : 1 h 55 min
Bit rate : 18.5 Mb/s
Width : 1 920 pixels
Height : 1 038 pixels
Display aspect ratio : 1.85:1
Frame rate mode : Constant
Frame rate : 23.976 (24000/1001) FPS
Color space : YUV
Chroma subsampling : 4:2:0
Bit depth : 8 bits
Scan type : Progressive
Bits/(Pixel*Frame) : 0.387
Stream size : 14.9 GiB (92%)
Writing library : x264 core 157 r2938 2b00a84 TnP@MTeam Mod
Encoding settings : cabac=1 / ref=4 / deblock=1:-3:-3 / analyse=0x3:0x133 / me=umh / subme=10 / psy=1 / psy_rd=1.05:0.00 / mixed_ref=1 / me_range=32 / chroma_me=1 / trellis=2 / 8x8dct=1 / cqm=0 / deadzone=21,11 / fast_pskip=0 / chroma_qp_offset=-2 / threads=12 / lookahead_threads=2 / sliced_threads=0 / nr=0 / decimate=0 / interlaced=0 / bluray_compat=0 / constrained_intra=0 / bframes=8 / b_pyramid=2 / b_adapt=2 / b_bias=0 / direct=3 / weightb=1 / open_gop=0 / weightp=2 / keyint=250 / keyint_min=24 / scenecut=40 / intra_refresh=0 / rc_lookahead=250 / rc=crf / mbtree=0 / crf=16.8 / qcomp=0.60 / qpmin=0 / qpmax=69 / qpstep=4 / vbv_maxrate=62500 / vbv_bufsize=78125 / crf_max=0.0 / nal_hrd=none / filler=0 / ip_ratio=1.30 / pb_ratio=1.20 / aq=3:0.80
Language : English
Default : Yes
Forced : No
Color range : Limited
Color primaries : BT.709
Matrix coefficients : BT.709

Audio
ID : 2
Format : DTS
Format/Info : Digital Theater Systems
Codec ID : A_DTS
Duration : 1 h 55 min
Bit rate mode : Constant
Bit rate : 1 509 kb/s
Channel(s) : 6 channels
Channel layout : C L R Ls Rs LFE
Sampling rate : 48.0 kHz
Frame rate : 93.750 FPS (512 SPF)
Bit depth : 24 bits
Compression mode : Lossy
Stream size : 1.22 GiB (8%)
Language : English
Default : Yes
Forced : No

Text
ID : 3
Format : UTF-8
Codec ID : S_TEXT/UTF8
Codec ID/Info : UTF-8 Plain Text
Duration : 1 h 55 min
Bit rate : 67 b/s
Count of elements : 2064
Stream size : 56.5 KiB (0%)
Title : SRT
Language : English
Default : Yes
Forced : No

Menu
00:00:00.000 : Chapter 01
00:08:57.036 : Chapter 02
00:14:28.493 : Chapter 03
00:19:20.993 : Chapter 04
00:25:11.176 : Chapter 05
00:34:42.539 : Chapter 06
00:42:10.695 : Chapter 07
00:50:33.864 : Chapter 08
00:56:00.732 : Chapter 09
01:03:57.459 : Chapter 10
01:08:39.824 : Chapter 11
01:17:40.865 : Chapter 12
01:24:07.209 : Chapter 13
01:31:58.888 : Chapter 14
01:39:33.050 : Chapter 15
01:48:15.864 : Chapter 16
Screenshots

Download – [Web-DL]

Space.Jam.a.New.Legacy.2021.WEBRip.x264-ION10.mp4 [1.1GB]
https://send.cm/d/3ozL
Space Jam A New Legacy (2021) (1080p HMAX WEB-DL x265 10bit HDR DD5.1-MRCS) [5.8GB]
GDrive[Password Protected]
https://official3.the-ambassador1.workers.dev/0:/Space.Jam.A.New.Legacy.2021/
Space.Jam.a.New.Legacy.2021.1080p.HMAX.WEB-DL.DDP5.1.Atmos.x264-CMRG.mkv [7.2GB]
https://1fichier.com/?u5f8qrorn0wwl5n8xo3j
Space.Jam.a.New.Legacy.2021.2160p.HMAX.WEB-DL.DDP5.1.Atmos.HDR.HEVC-CMRG.mkv [15GB]
https://1fichier.com/?xs1mje7bnsb3uzwegphe

Password & My Message