Fast Download Mirrors

Squid Game (2021-) • TVSeries | 2160p.NF.WEBRip.DD+5.1.Atmos.HEVC.HDR.DoVi.HYBRYD.P8-DVT

Squid Game (2021) • TVSeries
Squid Game 60min | Action, Adventure, Drama, Mystery, Thriller | September 17, 2021 (United States) Summary: Hundreds of cash-strapped players accept a strange invitation to compete in children's games. Inside, a tempting prize awaits with deadly high stakes.s survival game that has a whopping 40-m... Read all
Countries: South KoreaLanguages: Korean

A story of people who fail at life for various reasons, but suddenly receive a mysterious invitation to participate in a survival game to win ten million US dollars. The game takes place at an unknown location, and the participants are locked up until there is a final winner. The story will incorporate popular children’s games from the 1970s and 1980s of Korea, such as squid game, literal translation of its Korean name, which is a type of tag where offense and defense use a squid-shaped board drawn in the dirt.

Mirrors: MirrorAce, MultiUp, Gdrive[GDTOT], Gdrive Index
Format: MKV
Credits: DVT
Season-1 Complete

Download

Squid.Game.S01E01.2160p.NF.WEBRip.DD+5.1.Atmos.HDR.DoVi.HYBRYD.P8.by.DVT.mkv - 6.99 GB
Squid.Game.S01E02.2160p.NF.WEBRip.DD+5.1.Atmos.HDR.DoVi.HYBRYD.P8.by.DVT.mkv - 7.17 GB
Squid.Game.S01E03.2160p.NF.WEBRip.DD+5.1.Atmos.HDR.DoVi.HYBRYD.P8.by.DVT.mkv - 8.42 GB
Squid.Game.S01E04.2160p.NF.WEBRip.DD+5.1.Atmos.HDR.DoVi.HYBRYD.P8.by.DVT.mkv - 7.9 GB
Squid.Game.S01E05.2160p.NF.WEBRip.DD+5.1.Atmos.HDR.DoVi.HYBRYD.P8.by.DVT.mkv - 6.91 GB
Squid.Game.S01E06.2160p.NF.WEBRip.DD+5.1.Atmos.HDR.DoVi.HYBRYD.P8.by.DVT.mkv - 9.5 GB
Squid.Game.S01E07.2160p.NF.WEBRip.DD+5.1.Atmos.HDR.DoVi.HYBRYD.P8.by.DVT.mkv - 8.11 GB
Squid.Game.S01E08.2160p.NF.WEBRip.DD+5.1.Atmos.HDR.DoVi.HYBRYD.P8.by.DVT.mkv - 4.11 GB

[Single Folder][Password Protected]
https://official43.the-ambassador1.workers.dev/0:/Squid.Game.S01.2160p/

[Single Episodes]
https://new.gdtot.org/file/7501050815
https://new.gdtot.org/file/7700197274
https://new.gdtot.org/file/9036197111
https://new.gdtot.org/file/8477751569
https://new.gdtot.org/file/7423687959
https://new.gdtot.org/file/10195726643
https://new.gdtot.org/file/8706414834
https://new.gdtot.org/file/4408256490

https://multiup.org/bdb7ab490102f2390b240444a087d254
https://multiup.org/48062fc3273150b20cc4e55ac29eb6f6
https://multiup.org/ac70904f57e707b1d68dd5f63ebd5f77
https://multiup.org/082cd5f329dd3d6beec234b00d243322
https://multiup.org/6010c3aec221315854e41b6311489252
https://multiup.org/9ec11a8e84ee86e4be075656b9a50619
https://multiup.org/221d3661bb7c54989919908c92b32722
https://multiup.org/8a70e2444e7f29dc380cd4c85589bdfc
https://multiup.org/915ce18d3bc2e9a955609df8f5ce8383

https://mirrorace.org/m/57rgi
https://mirrorace.org/m/4rtO0
https://mirrorace.org/m/3LwlK
https://mirrorace.org/m/3LwlO
https://mirrorace.org/m/3LwlR
https://mirrorace.org/m/57rgz
https://mirrorace.org/m/3Lwm0
https://mirrorace.org/m/3Lwm3
https://mirrorace.org/m/3Lwm8
Format : Matroska
Format version : Version 4
File size : 6.99 GiB
Duration : 59 min 42 s
Overall bit rate : 16.8 Mb/s
Movie name : Squid Game [S01-E1] (2021) - Release by Dolby Vision Torrents
Encoded date : UTC 2021-10-09 15:29:08
Writing application : mkvmerge v61.0.0 ('So') 64-bit
Writing library : libebml v1.4.2 + libmatroska v1.6.4

Video
ID : 1
Format : HEVC
Format/Info : High Efficiency Video Coding
Format profile : Main 10@L5.1@High
HDR format : Dolby Vision, Version 1.0, dvhe.08.06, BL+RPU / SMPTE ST 2086, HDR10 compatible
Codec ID : V_MPEGH/ISO/HEVC
Duration : 58 min 17 s
Bit rate : 14.7 Mb/s
Width : 3 840 pixels
Height : 1 920 pixels
Display aspect ratio : 2.000
Frame rate mode : Constant
Frame rate : 23.976 (24000/1001) FPS
Color space : YUV
Chroma subsampling : 4:2:0 (Type 2)
Bit depth : 10 bits
Bits/(Pixel*Frame) : 0.083
Stream size : 6.01 GiB (86%)
Title : Squid Game [S01-E1] (2021) - HYBRYD by DVT
Writing library : x265 3.3+31-g431a22e82:[Windows][GCC 11.0.0][64 bit] 10bit
Encoding settings : cpuid=1111039 / frame-threads=4 / numa-pools=28 / wpp / no-pmode / no-pme / no-psnr / no-ssim / log-level=2 / input-csp=1 / input-res=3840x1920 / interlace=0 / total-frames=79394 / level-idc=51 / high-tier=1 / uhd-bd=0 / ref=4 / no-allow-non-conformance / repeat-headers / annexb / aud / hrd / info / hash=0 / no-temporal-layers / open-gop / min-keyint=23 / keyint=250 / gop-lookahead=0 / bframes=4 / b-adapt=2 / b-pyramid / bframe-bias=0 / rc-lookahead=25 / lookahead-slices=4 / scenecut=40 / hist-scenecut=0 / radl=0 / no-splice / no-intra-refresh / ctu=64 / min-cu-size=8 / rect / no-amp / max-tu-size=32 / tu-inter-depth=1 / tu-intra-depth=1 / limit-tu=0 / rdoq-level=2 / dynamic-rd=0.00 / no-ssim-rd / signhide / no-tskip / nr-intra=0 / nr-inter=0 / no-constrained-intra / strong-intra-smoothing / max-merge=3 / limit-refs=3 / limit-modes / me=3 / subme=3 / merange=57 / temporal-mvp / no-frame-dup / no-hme / weightp / no-weightb / no-analyze-src-pics / deblock=-2:-2 / no-sao / no-sao-non-deblock / rd=4 / selective-sao=0 / no-early-skip / rskip / no-fast-intra / no-tskip-fast / no-cu-lossless / no-b-intra / no-splitrd-skip / rdpenalty=0 / psy-rd=2.00 / psy-rdoq=1.00 / no-rd-refine / no-lossless / cbqpoffs=0 / crqpoffs=0 / rc=crf / crf=16.0 / qcomp=0.60 / qpstep=4 / stats-write=0 / stats-read=0 / vbv-maxrate=98000 / vbv-bufsize=98000 / vbv-init=0.9 / crf-max=0.0 / crf-min=0.0 / ipratio=1.40 / pbratio=1.30 / aq-mode=1 / aq-strength=1.00 / cutree / zone-count=0 / no-strict-cbr / qg-size=32 / no-rc-grain / qpmax=69 / qpmin=0 / no-const-vbv / sar=0 / overscan=0 / videoformat=5 / range=0 / colorprim=9 / transfer=16 / colormatrix=9 / chromaloc=1 / chromaloc-top=2 / chromaloc-bottom=2 / display-window=0 / master-display=G(13250,34500)B(7500,3000)R(34000,16000)WP(15635,16450)L(10000000,1) / cll=1156,402 / min-luma=0 / max-luma=1023 / log2-max-poc-lsb=8 / vui-timing-info / vui-hrd-info / slices=1 / no-opt-qp-pps / no-opt-ref-list-length-pps / no-multi-pass-opt-rps / scenecut-bias=0.05 / hist-threshold=0.01 / no-opt-cu-delta-qp / no-aq-motion / hdr10 / hdr10-opt / no-dhdr10-opt / no-idr-recovery-sei / analysis-reuse-level=0 / analysis-save-reuse-level=0 / analysis-load-reuse-level=0 / scale-factor=0 / refine-intra=0 / refine-inter=0 / refine-mv=1 / refine-ctu-distortion=0 / no-limit-sao / ctu-info=0 / no-lowpass-dct / refine-analysis-type=0 / copy-pic=1 / max-ausize-factor=1.0 / no-dynamic-refine / no-single-sei / no-hevc-aq / no-svt / no-field / qp-adaptation-range=1.00 / no-scenecut-aware-qpconformance-window-offsets / right=0 / bottom=0 / decoder-max-rate=0
Language : English
Default : Yes
Forced : No
Color range : Limited
Color primaries : BT.2020
Transfer characteristics : PQ
Matrix coefficients : BT.2020 non-constant
Mastering display color primar : Display P3
Mastering display luminance : min: 0.0001 cd/m2, max: 1000 cd/m2
Maximum Content Light Level : 1156 cd/m2
Maximum Frame-Average Light Le : 402 cd/m2

Audio #1
ID : 2
Format : AC-3
Format/Info : Audio Coding 3
Commercial name : Dolby Digital
Codec ID : A_AC3
Duration : 58 min 16 s
Bit rate mode : Constant
Bit rate : 448 kb/s
Channel(s) : 6 channels
Channel layout : L R C LFE Ls Rs
Sampling rate : 48.0 kHz
Frame rate : 31.250 FPS (1536 SPF)
Compression mode : Lossy
Stream size : 187 MiB (3%)
Title : HDrezka - AC3 5.1
Language : Russian
Service kind : Complete Main
Default : Yes
Forced : No

Audio #2
ID : 3
Format : AC-3
Format/Info : Audio Coding 3
Commercial name : Dolby Digital
Codec ID : A_AC3
Duration : 58 min 17 s
Bit rate mode : Constant
Bit rate : 384 kb/s
Channel(s) : 6 channels
Channel layout : L R C LFE Ls Rs
Sampling rate : 48.0 kHz
Frame rate : 31.250 FPS (1536 SPF)
Compression mode : Lossy
Stream size : 160 MiB (2%)
Title : TVShows - AC3 5.1
Language : Russian
Service kind : Complete Main
Default : No
Forced : No

Audio #3
ID : 4
Format : E-AC-3 JOC
Format/Info : Enhanced AC-3 with Joint Object Coding
Commercial name : Dolby Digital Plus with Dolby Atmos
Codec ID : A_EAC3
Duration : 59 min 42 s
Bit rate mode : Constant
Bit rate : 768 kb/s
Channel(s) : 6 channels
Channel layout : L R C LFE Ls Rs
Sampling rate : 48.0 kHz
Frame rate : 31.250 FPS (1536 SPF)
Compression mode : Lossy
Stream size : 328 MiB (5%)
Title : Original - EAC3 5.1+Atmos
Language : Korean
Service kind : Complete Main
Default : No
Forced : No
Complexity index : 16
Number of dynamic objects : 15
Bed channel count : 1 channel
Bed channel configuration : LFE

Audio #4
ID : 5
Format : E-AC-3 JOC
Format/Info : Enhanced AC-3 with Joint Object Coding
Commercial name : Dolby Digital Plus with Dolby Atmos
Codec ID : A_EAC3
Duration : 59 min 42 s
Bit rate mode : Constant
Bit rate : 768 kb/s
Channel(s) : 6 channels
Channel layout : L R C LFE Ls Rs
Sampling rate : 48.0 kHz
Frame rate : 31.250 FPS (1536 SPF)
Compression mode : Lossy
Stream size : 328 MiB (5%)
Title : English - EAC3 5.1+Atmos
Language : English
Service kind : Complete Main
Default : No
Forced : No
Complexity index : 16
Number of dynamic objects : 15
Bed channel count : 1 channel
Bed channel configuration : LFE

Text #1
ID : 6
Format : UTF-8
Codec ID : S_TEXT/UTF8
Codec ID/Info : UTF-8 Plain Text
Duration : 45 min 9 s
Bit rate : 2 b/s
Count of elements : 19
Stream size : 907 Bytes (0%)
Title : Forced
Language : Russian
Default : Yes
Forced : No

Text #2
ID : 7
Format : UTF-8
Codec ID : S_TEXT/UTF8
Codec ID/Info : UTF-8 Plain Text
Duration : 58 min 6 s
Bit rate : 71 b/s
Count of elements : 641
Stream size : 30.4 KiB (0%)
Title : Full
Language : Russian
Default : No
Forced : No

Text #3
ID : 8
Format : UTF-8
Codec ID : S_TEXT/UTF8
Codec ID/Info : UTF-8 Plain Text
Duration : 58 min 6 s
Bit rate : 75 b/s
Count of elements : 642
Stream size : 31.9 KiB (0%)
Title : Full
Language : Ukrainian
Default : No
Forced : No

Text #4
ID : 9
Format : UTF-8
Codec ID : S_TEXT/UTF8
Codec ID/Info : UTF-8 Plain Text
Duration : 55 min 35 s
Bit rate : 1 b/s
Count of elements : 18
Stream size : 480 Bytes (0%)
Title : Forced
Language : English
Default : No
Forced : No

Text #5
ID : 10
Format : UTF-8
Codec ID : S_TEXT/UTF8
Codec ID/Info : UTF-8 Plain Text
Duration : 51 min 18 s
Bit rate : 57 b/s
Count of elements : 703
Stream size : 21.5 KiB (0%)
Title : Full
Language : English
Default : No
Forced : No

Text #6
ID : 11
Format : UTF-8
Codec ID : S_TEXT/UTF8
Codec ID/Info : UTF-8 Plain Text
Duration : 55 min 59 s
Bit rate : 72 b/s
Count of elements : 1017
Stream size : 29.9 KiB (0%)
Title : Full SDH
Language : English
Default : No
Forced : No

Text #7
ID : 12
Format : UTF-8
Codec ID : S_TEXT/UTF8
Codec ID/Info : UTF-8 Plain Text
Duration : 58 min 5 s
Bit rate : 0 b/s
Count of elements : 7
Stream size : 180 Bytes (0%)
Title : Forced
Language : Korean
Default : No
Forced : No

Text #8
ID : 13
Format : UTF-8
Codec ID : S_TEXT/UTF8
Codec ID/Info : UTF-8 Plain Text
Duration : 58 min 5 s
Bit rate : 81 b/s
Count of elements : 995
Stream size : 34.9 KiB (0%)
Title : Full SDH
Language : Korean
Default : No
Forced : No

SQUID GAME (2021-) • TVSERIES | 2160P.NF WEBRIP.HDR.X265.DDP.5.1.ATMOS-N0TTZ
https://ambassadorddl.site/squid-game-2021-tvseries-2160p-nf-webrip-hdr-x265-ddp-5-1-atmos-n0ttz/
SQUID GAME (2021-) • TVSERIES | 1080p.NF.WEB-DL.DD+5.1.Atmos.HDR.HEVC-Telly – 24.67 GB
https://ambassadorddl.site/squid-game-2021-tvseries/
Readme/Password

Password & My Message