Fast Download Mirrors

Star Wars: Visions (2021-) • TVSeries

Star Wars: Visions (2021) • TVSeries
Star Wars: Visions Animation, Action, Adventure, Fantasy, Sci-Fi | September 22, 2021 (United States) Summary: Star Wars anthology series that will see some of the world's best anime creators bring their talent to this beloved universe.
Countries: Japan, United StatesLanguages: English, Japanese

Star Wars anthology series that will see some of the world’s best anime creators bring their talent to this beloved universe.

Mirrors: MirrorAce, MultiUp, Gdrive[GDTOT, Sharer], 1fichier
Format: MKV
Credits: Telly

Download – [Web-DL]

Star.Wars.Visions.S01E01.1080p.DSNP.WEB-DL.DDP5.1.H.264-Telly.mkv - 752.45 MB
Star.Wars.Visions.S01E02.1080p.DSNP.WEB-DL.DDP5.1.H.264-Telly.mkv - 578.27 MB
Star.Wars.Visions.S01E03.1080p.DSNP.WEB-DL.DDP5.1.H.264-Telly.mkv - 849.63 MB
Star.Wars.Visions.S01E04.1080p.DSNP.WEB-DL.DDP5.1.H.264-Telly.mkv - 687.37 MB
Star.Wars.Visions.S01E05.1080p.DSNP.WEB-DL.DDP5.1.H.264-Telly.mkv - 828.02 MB
Star.Wars.Visions.S01E06.1080p.DSNP.WEB-DL.DDP5.1.H.264-Telly.mkv - 584.23 MB
Star.Wars.Visions.S01E07.1080p.DSNP.WEB-DL.DDP5.1.H.264-Telly.mkv - 686.85 MB
Star.Wars.Visions.S01E08.1080p.DSNP.WEB-DL.DDP5.1.H.264-Telly.mkv - 1009.03 MB
Star.Wars.Visions.S01E09.1080p.DSNP.WEB-DL.DDP5.1.H.264-Telly.mkv - 531.27 MB


https://multiup.org/82f73c4858385518fdeef85b470e3016
https://multiup.org/01ce279c3deace5334ac76864971d31e
https://multiup.org/de3f11b580ebb47f7272e9e287ee2493
https://multiup.org/44ba2aa040c36fdb4e9bf2f7a40cf9a9
https://multiup.org/1810834dd231845ccd15ccb29f7ff57b
https://multiup.org/c422ac917426a237d174f1e862b45439
https://multiup.org/caaf8373d34c1dd37d80f01ff82e5eca
https://multiup.org/b187ac28d441534eba534e2ef52187ca
https://multiup.org/51ca55fad1e760f64be92255db709f36

https://mirrorace.org/m/13r1z
https://mirrorace.org/m/1JotU
https://mirrorace.org/m/1JotV
https://mirrorace.org/m/1JotX
https://mirrorace.org/m/1JotY
https://mirrorace.org/m/1Jou0
https://mirrorace.org/m/1Jou1
https://mirrorace.org/m/1Jou2
https://mirrorace.org/m/1Jou3

https://new.gdtot.me/file/789000827
https://new.gdtot.me/file/606363148
https://new.gdtot.me/file/890902588
https://new.gdtot.me/file/720764880
https://new.gdtot.me/file/868242214
https://new.gdtot.me/file/612608905
https://new.gdtot.me/file/720216840
https://new.gdtot.me/file/1058047091
https://new.gdtot.me/file/557074989

https://sharer.pw/file/8lHo_tsQcsIk
https://sharer.pw/file/Wh_CeML6eVdv
https://sharer.pw/file/URmdh70FhRh2
https://sharer.pw/file/gdLI9Bj2dPmU
https://sharer.pw/file/6rnYqHCIqw46
https://sharer.pw/file/8ubwDPdM4HGc
https://sharer.pw/file/5zr0yfnvZH3H
https://sharer.pw/file/VgEtqEcb0AZJ
https://sharer.pw/file/2_o4O241dnx5
General
Unique ID                                : 95631738299964995526121100563684132642 (0x47F200BA4A6BE1E87E42C95C23D60722)
Complete name                            : Star.Wars.Visions.S01E01.1080p.DSNP.WEB-DL.DDP5.1.H.264-Telly.mkv
Format                                   : Matroska
Format version                           : Version 4
File size                                : 752 MiB
Duration                                 : 14 min 10 s
Overall bit rate mode                    : Variable
Overall bit rate                         : 7 420 kb/s
Encoded date                             : UTC 2021-09-22 06:51:08
Writing application                      : mkvmerge v56.1.0 ('My Friend') 64-bit
Writing library                          : libebml v1.4.2 + libmatroska v1.6.4

Video
ID                                       : 1
Format                                   : AVC
Format/Info                              : Advanced Video Codec
Format profile                           : High@L4
Format settings                          : CABAC / 4 Ref Frames
Format settings, CABAC                   : Yes
Format settings, ReFrames                : 4 frames
Codec ID                                 : V_MPEG4/ISO/AVC
Duration                                 : 14 min 10 s
Bit rate mode                            : Variable
Bit rate                                 : 7 164 kb/s
Maximum bit rate                         : 12.7 Mb/s
Width                                    : 1 920 pixels
Height                                   : 1 080 pixels
Display aspect ratio                     : 16:9
Frame rate mode                          : Constant
Frame rate                               : 24.000 FPS
Color space                              : YUV
Chroma subsampling                       : 4:2:0
Bit depth                                : 8 bits
Scan type                                : Progressive
Bits/(Pixel*Frame)                       : 0.144
Stream size                              : 726 MiB (97%)
Default                                  : Yes
Forced                                   : No
Color range                              : Limited
Color primaries                          : BT.709
Transfer characteristics                 : BT.709
Matrix coefficients                      : BT.709

Audio
ID                                       : 2
Format                                   : E-AC-3
Format/Info                              : Enhanced AC-3
Commercial name                          : Dolby Digital Plus
Codec ID                                 : A_EAC3
Duration                                 : 14 min 10 s
Bit rate mode                            : Constant
Bit rate                                 : 256 kb/s
Channel(s)                               : 6 channels
Channel layout                           : L R C LFE Ls Rs
Sampling rate                            : 48.0 kHz
Frame rate                               : 31.250 FPS (1536 SPF)
Compression mode                         : Lossy
Stream size                              : 26.0 MiB (3%)
Title                                    : English
Language                                 : English
Service kind                             : Complete Main
Default                                  : No
Forced                                   : No

Text #1
ID                                       : 3
Format                                   : UTF-8
Codec ID                                 : S_TEXT/UTF8
Codec ID/Info                            : UTF-8 Plain Text
Duration                                 : 12 min 17 s
Bit rate                                 : 39 b/s
Count of elements                        : 141
Stream size                              : 3.58 KiB (0%)
Title                                    : English
Language                                 : English
Default                                  : No
Forced                                   : No

Text #2
ID                                       : 4
Format                                   : UTF-8
Codec ID                                 : S_TEXT/UTF8
Codec ID/Info                            : UTF-8 Plain Text
Duration                                 : 12 min 44 s
Bit rate                                 : 19 b/s
Count of elements                        : 75
Stream size                              : 1.79 KiB (0%)
Title                                    : Chinese Simplified
Language                                 : Chinese
Default                                  : No
Forced                                   : No

Text #3
ID                                       : 5
Format                                   : UTF-8
Codec ID                                 : S_TEXT/UTF8
Codec ID/Info                            : UTF-8 Plain Text
Duration                                 : 12 min 37 s
Bit rate                                 : 0 b/s
Count of elements                        : 2
Stream size                              : 30.0 Bytes (0%)
Title                                    : Danish [Forced]
Language                                 : Danish
Default                                  : No
Forced                                   : Yes

Text #4
ID                                       : 6
Format                                   : UTF-8
Codec ID                                 : S_TEXT/UTF8
Codec ID/Info                            : UTF-8 Plain Text
Duration                                 : 12 min 37 s
Bit rate                                 : 23 b/s
Count of elements                        : 74
Stream size                              : 2.21 KiB (0%)
Title                                    : Danish
Language                                 : Danish
Default                                  : No
Forced                                   : No

Text #5
ID                                       : 7
Format                                   : UTF-8
Codec ID                                 : S_TEXT/UTF8
Codec ID/Info                            : UTF-8 Plain Text
Duration                                 : 11 min 30 s
Bit rate                                 : 26 b/s
Count of elements                        : 70
Stream size                              : 2.22 KiB (0%)
Title                                    : Dutch
Language                                 : Dutch
Default                                  : No
Forced                                   : No

Text #6
ID                                       : 8
Format                                   : UTF-8
Codec ID                                 : S_TEXT/UTF8
Codec ID/Info                            : UTF-8 Plain Text
Duration                                 : 12 min 37 s
Bit rate                                 : 0 b/s
Count of elements                        : 2
Stream size                              : 38.0 Bytes (0%)
Title                                    : Finnish [Forced]
Language                                 : Finnish
Default                                  : No
Forced                                   : Yes

Text #7
ID                                       : 9
Format                                   : UTF-8
Codec ID                                 : S_TEXT/UTF8
Codec ID/Info                            : UTF-8 Plain Text
Duration                                 : 12 min 37 s
Bit rate                                 : 22 b/s
Count of elements                        : 72
Stream size                              : 2.12 KiB (0%)
Title                                    : Finnish
Language                                 : Finnish
Default                                  : No
Forced                                   : No

Text #8
ID                                       : 10
Format                                   : UTF-8
Codec ID                                 : S_TEXT/UTF8
Codec ID/Info                            : UTF-8 Plain Text
Duration                                 : 12 min 37 s
Bit rate                                 : 0 b/s
Count of elements                        : 2
Stream size                              : 38.0 Bytes (0%)
Title                                    : French [Forced]
Language                                 : French
Default                                  : No
Forced                                   : Yes

Text #9
ID                                       : 11
Format                                   : UTF-8
Codec ID                                 : S_TEXT/UTF8
Codec ID/Info                            : UTF-8 Plain Text
Duration                                 : 12 min 37 s
Bit rate                                 : 25 b/s
Count of elements                        : 74
Stream size                              : 2.33 KiB (0%)
Title                                    : French
Language                                 : French
Default                                  : No
Forced                                   : No

Text #10
ID                                       : 12
Format                                   : UTF-8
Codec ID                                 : S_TEXT/UTF8
Codec ID/Info                            : UTF-8 Plain Text
Duration                                 : 12 min 44 s
Bit rate                                 : 0 b/s
Count of elements                        : 2
Stream size                              : 48.0 Bytes (0%)
Title                                    : German [Forced]
Language                                 : German
Default                                  : No
Forced                                   : Yes

Text #11
ID                                       : 13
Format                                   : UTF-8
Codec ID                                 : S_TEXT/UTF8
Codec ID/Info                            : UTF-8 Plain Text
Duration                                 : 12 min 44 s
Bit rate                                 : 25 b/s
Count of elements                        : 75
Stream size                              : 2.36 KiB (0%)
Title                                    : German
Language                                 : German
Default                                  : No
Forced                                   : No

Text #12
ID                                       : 14
Format                                   : UTF-8
Codec ID                                 : S_TEXT/UTF8
Codec ID/Info                            : UTF-8 Plain Text
Duration                                 : 12 min 37 s
Bit rate                                 : 0 b/s
Count of elements                        : 2
Stream size                              : 38.0 Bytes (0%)
Title                                    : Italian [Forced]
Language                                 : Italian
Default                                  : No
Forced                                   : Yes

Text #13
ID                                       : 15
Format                                   : UTF-8
Codec ID                                 : S_TEXT/UTF8
Codec ID/Info                            : UTF-8 Plain Text
Duration                                 : 12 min 37 s
Bit rate                                 : 23 b/s
Count of elements                        : 72
Stream size                              : 2.17 KiB (0%)
Title                                    : Italian
Language                                 : Italian
Default                                  : No
Forced                                   : No

Text #14
ID                                       : 16
Format                                   : UTF-8
Codec ID                                 : S_TEXT/UTF8
Codec ID/Info                            : UTF-8 Plain Text
Duration                                 : 12 min 44 s
Bit rate                                 : 25 b/s
Count of elements                        : 75
Stream size                              : 2.42 KiB (0%)
Title                                    : Korean
Language                                 : Korean
Default                                  : No
Forced                                   : No

Text #15
ID                                       : 17
Format                                   : UTF-8
Codec ID                                 : S_TEXT/UTF8
Codec ID/Info                            : UTF-8 Plain Text
Duration                                 : 12 min 44 s
Bit rate                                 : 0 b/s
Count of elements                        : 3
Stream size                              : 69.0 Bytes (0%)
Title                                    : Yue Chinese [Forced]
Language                                 : Chinese
Default                                  : No
Forced                                   : Yes

Text #16
ID                                       : 18
Format                                   : UTF-8
Codec ID                                 : S_TEXT/UTF8
Codec ID/Info                            : UTF-8 Plain Text
Duration                                 : 11 min 30 s
Bit rate                                 : 26 b/s
Count of elements                        : 73
Stream size                              : 2.21 KiB (0%)
Title                                    : Norwegian
Language                                 : Norwegian
Default                                  : No
Forced                                   : No

Text #17
ID                                       : 19
Format                                   : UTF-8
Codec ID                                 : S_TEXT/UTF8
Codec ID/Info                            : UTF-8 Plain Text
Duration                                 : 12 min 44 s
Bit rate                                 : 22 b/s
Count of elements                        : 75
Stream size                              : 2.11 KiB (0%)
Title                                    : Polish
Language                                 : Polish
Default                                  : No
Forced                                   : No

Text #18
ID                                       : 20
Format                                   : UTF-8
Codec ID                                 : S_TEXT/UTF8
Codec ID/Info                            : UTF-8 Plain Text
Duration                                 : 12 min 44 s
Bit rate                                 : 0 b/s
Count of elements                        : 2
Stream size                              : 43.0 Bytes (0%)
Title                                    : Portuguese [Forced]
Language                                 : Portuguese
Default                                  : No
Forced                                   : Yes

Text #19
ID                                       : 21
Format                                   : UTF-8
Codec ID                                 : S_TEXT/UTF8
Codec ID/Info                            : UTF-8 Plain Text
Duration                                 : 12 min 44 s
Bit rate                                 : 23 b/s
Count of elements                        : 74
Stream size                              : 2.23 KiB (0%)
Title                                    : Portuguese
Language                                 : Portuguese
Default                                  : No
Forced                                   : No

Text #20
ID                                       : 22
Format                                   : UTF-8
Codec ID                                 : S_TEXT/UTF8
Codec ID/Info                            : UTF-8 Plain Text
Duration                                 : 12 min 37 s
Bit rate                                 : 0 b/s
Count of elements                        : 2
Stream size                              : 32.0 Bytes (0%)
Title                                    : Brazilian Portuguese [Forced]
Language                                 : Portuguese
Default                                  : No
Forced                                   : Yes

Text #21
ID                                       : 23
Format                                   : UTF-8
Codec ID                                 : S_TEXT/UTF8
Codec ID/Info                            : UTF-8 Plain Text
Duration                                 : 12 min 37 s
Bit rate                                 : 24 b/s
Count of elements                        : 73
Stream size                              : 2.22 KiB (0%)
Title                                    : Brazilian Portuguese
Language                                 : Portuguese
Default                                  : No
Forced                                   : No

Text #22
ID                                       : 24
Format                                   : UTF-8
Codec ID                                 : S_TEXT/UTF8
Codec ID/Info                            : UTF-8 Plain Text
Duration                                 : 12 min 37 s
Bit rate                                 : 0 b/s
Count of elements                        : 2
Stream size                              : 34.0 Bytes (0%)
Title                                    : Spanish [Forced]
Language                                 : Spanish
Default                                  : No
Forced                                   : Yes

Text #23
ID                                       : 25
Format                                   : UTF-8
Codec ID                                 : S_TEXT/UTF8
Codec ID/Info                            : UTF-8 Plain Text
Duration                                 : 12 min 37 s
Bit rate                                 : 23 b/s
Count of elements                        : 72
Stream size                              : 2.20 KiB (0%)
Title                                    : Spanish
Language                                 : Spanish
Default                                  : No
Forced                                   : No

Text #24
ID                                       : 26
Format                                   : UTF-8
Codec ID                                 : S_TEXT/UTF8
Codec ID/Info                            : UTF-8 Plain Text
Duration                                 : 11 min 30 s
Bit rate                                 : 27 b/s
Count of elements                        : 71
Stream size                              : 2.35 KiB (0%)
Title                                    : European Spanish
Language                                 : Spanish
Default                                  : No
Forced                                   : No

Text #25
ID                                       : 27
Format                                   : UTF-8
Codec ID                                 : S_TEXT/UTF8
Codec ID/Info                            : UTF-8 Plain Text
Duration                                 : 12 min 37 s
Bit rate                                 : 0 b/s
Count of elements                        : 2
Stream size                              : 32.0 Bytes (0%)
Title                                    : Swedish [Forced]
Language                                 : Swedish
Default                                  : No
Forced                                   : Yes

Text #26
ID                                       : 28
Format                                   : UTF-8
Codec ID                                 : S_TEXT/UTF8
Codec ID/Info                            : UTF-8 Plain Text
Duration                                 : 12 min 37 s
Bit rate                                 : 25 b/s
Count of elements                        : 74
Stream size                              : 2.34 KiB (0%)
Title                                    : Swedish
Language                                 : Swedish
Default                                  : No
Forced                                   : No

Download – [Web-DL][Single File]


Readme

Password & My Message

Screenshots