Fast Download Mirrors

The Card Counter (2021) • Movie | 1080p.BluRay.REMUX.AVC.DTS-HD.MA.5.1-PiRaTeS [30GB]

The Card Counter (2021)
The Card Counter 111min | Action, Drama, Thriller | September 10, 2021 (United States) Summary: Redemption is the long game in Paul Schrader's THE CARD COUNTER. Told with Schrader's trademark cinematic intensity, the revenge thriller tells the story of an ex-military interrogator turne... Read all
Countries: United Kingdom, China, United StatesLanguages: English

William Tell just wants to play cards. His spartan existence on the casino trail is shattered when he is approached by Cirk, a vulnerable and angry young man seeking help to execute his plan for revenge on a military colonel. Tell sees a chance at redemption through his relationship with Cirk. But keeping Cirk on the straight-and-narrow proves impossible, dragging Tell back into the darkness of his past.

Mirrors: 1fichier,  Gdrive[GDTOT, Sharer, GAdrive], Gdrive Index
Format: MKV
Credits: PiRaTeS

Download

General
Unique ID                                : 30699395422264997653990905182555180733 (0x17187D0DCCFCC642BE963CF4AB7F8EBD)
Complete name                            : The.Card.Counter.2021.1080p.BluRay.REMUX.AVC.DTS-HD.MA.5.1-PiRaTeS.mkv
Format                                   : Matroska
Format version                           : Version 2
File size                                : 30.9 GiB
Duration                                 : 1 h 51 min
Overall bit rate mode                    : Variable
Overall bit rate                         : 39.7 Mb/s
Encoded date                             : UTC 2021-12-07 22:49:21
Writing application                      : MakeMKV v1.16.5 linux(x64-release)
Writing library                          : libmakemkv v1.16.5 (1.3.10/1.5.2) x86_64-linux-gnu

Video
ID                                       : 1
ID in the original source medium         : 4113 (0x1011)
Format                                   : AVC
Format/Info                              : Advanced Video Codec
Format profile                           : High@L4.1
Format settings                          : CABAC / 2 Ref Frames
Format settings, CABAC                   : Yes
Format settings, Reference frames        : 2 frames
Format settings, GOP                     : M=1, N=10
Codec ID                                 : V_MPEG4/ISO/AVC
Duration                                 : 1 h 51 min
Bit rate mode                            : Variable
Bit rate                                 : 36.3 Mb/s
Width                                    : 1 920 pixels
Height                                   : 1 080 pixels
Display aspect ratio                     : 16:9
Frame rate mode                          : Constant
Frame rate                               : 23.976 (24000/1001) FPS
Color space                              : YUV
Chroma subsampling                       : 4:2:0
Bit depth                                : 8 bits
Scan type                                : Progressive
Bits/(Pixel*Frame)                       : 0.729
Stream size                              : 28.2 GiB (91%)
Language                                 : English
Default                                  : No
Forced                                   : No
Original source medium                   : Blu-ray

Audio
ID                                       : 2
ID in the original source medium         : 4352 (0x1100)
Format                                   : DTS XLL
Format/Info                              : Digital Theater Systems
Commercial name                          : DTS-HD Master Audio
Codec ID                                 : A_DTS
Duration                                 : 1 h 51 min
Bit rate mode                            : Variable
Bit rate                                 : 3 391 kb/s
Channel(s)                               : 6 channels
Channel layout                           : C L R Ls Rs LFE
Sampling rate                            : 48.0 kHz
Frame rate                               : 93.750 FPS (512 SPF)
Bit depth                                : 24 bits
Compression mode                         : Lossless
Stream size                              : 2.64 GiB (9%)
Language                                 : English
Default                                  : Yes
Forced                                   : No
Original source medium                   : Blu-ray

Text #1
ID                                       : 3
ID in the original source medium         : 4608 (0x1200)
Format                                   : PGS
Codec ID                                 : S_HDMV/PGS
Codec ID/Info                            : Picture based subtitle format used on BDs/HD-DVDs
Duration                                 : 1 h 47 min
Bit rate                                 : 36.8 kb/s
Count of elements                        : 2631
Stream size                              : 28.3 MiB (0%)
Language                                 : English
Default                                  : No
Forced                                   : No
Original source medium                   : Blu-ray

Text #2
ID                                       : 5
ID in the original source medium         : 4609 (0x1201)
Format                                   : PGS
Codec ID                                 : S_HDMV/PGS
Codec ID/Info                            : Picture based subtitle format used on BDs/HD-DVDs
Duration                                 : 1 h 49 min
Bit rate                                 : 29.7 kb/s
Count of elements                        : 2350
Stream size                              : 23.3 MiB (0%)
Language                                 : Spanish
Default                                  : No
Forced                                   : No
Original source medium                   : Blu-ray

Menu
00:00:00.000                             : en:Chapter 01
00:05:20.194                             : en:Chapter 02
00:09:02.416                             : en:Chapter 03
00:16:35.911                             : en:Chapter 04
00:20:18.091                             : en:Chapter 05
00:23:23.443                             : en:Chapter 06
00:31:04.195                             : en:Chapter 07
00:37:41.342                             : en:Chapter 08
00:43:58.802                             : en:Chapter 09
00:48:45.172                             : en:Chapter 10
00:54:17.712                             : en:Chapter 11
01:00:18.489                             : en:Chapter 12
01:07:48.481                             : en:Chapter 13
01:13:34.159                             : en:Chapter 14
01:18:26.743                             : en:Chapter 15
01:21:35.765                             : en:Chapter 16
01:28:04.362                             : en:Chapter 17
01:32:26.666                             : en:Chapter 18
01:38:31.488                             : en:Chapter 19
01:46:18.121                             : en:Chapter 20

Readme/Password

Password & My Message