Fast Download Mirrors

The Exorcist (1973) • Movie | Director’s.Cut.BluRay.1080p.DTS-HD.MA.5.1.VC-1.REMUX-FraMeSToR [24.76 GB]

The Exorcist Horror | December 26, 1973 (United States) Summary: When a 12-year-old girl is possessed by a mysterious entity, her mother seeks the help of two priests to save her.
Countries: United StatesLanguages: English, Latin, Greek, French, German, Arabic, Kurdish

12-year-old Regan MacNeil begins to adapt an explicit new personality as strange events befall the local area of Georgetown. Her mother becomes torn between science and superstition in a desperate bid to save her daughter, and ultimately turns to her last hope: Father Damien Karras, a troubled priest who is struggling with his own faith.

Mirrors: GDrive [Gadrive, GDToT, Index, Sharer], MultiUp
Format: MKV
Credits: FraMeSToR

Download

General
Unique ID                                : 249689858100359890704837570300345345603 (0xBBD88477C4D640E3EA08CE5054C06643)
Complete name                            : The.Exorcist.1973.Director's.Cut.BluRay.1080p.DTS-HD.MA.5.1.VC-1.REMUX-FraMeSToR.mkv
Format                                   : Matroska
Format version                           : Version 4
File size                                : 24.8 GiB
Duration                                 : 2 h 12 min
Overall bit rate mode                    : Variable
Overall bit rate                         : 26.8 Mb/s
Movie name                               : The Exorcist (1973) Director's Cut
Encoded date                             : UTC 2018-10-23 11:26:03
Writing application                      : mkvmerge v28.0.0 ('Voice In My Head') 64-bit
Writing library                          : libebml v1.3.6 + libmatroska v1.4.9

Video
ID                                       : 1
Format                                   : VC-1
Format profile                           : Advanced@L3
Codec ID                                 : V_MS/VFW/FOURCC / WVC1
Codec ID/Hint                            : Microsoft
Duration                                 : 2 h 12 min
Bit rate                                 : 22.0 Mb/s
Width                                    : 1 920 pixels
Height                                   : 1 080 pixels
Display aspect ratio                     : 16:9
Frame rate mode                          : Constant
Frame rate                               : 23.976 (24000/1001) FPS
Color space                              : YUV
Chroma subsampling                       : 4:2:0
Bit depth                                : 8 bits
Scan type                                : Progressive
Compression mode                         : Lossy
Bits/(Pixel*Frame)                       : 0.443
Stream size                              : 20.3 GiB (82%)
Default                                  : Yes
Forced                                   : No

Audio #1
ID                                       : 2
Format                                   : DTS ES XLL
Format/Info                              : Digital Theater Systems
Commercial name                          : DTS-HD Master Audio
Codec ID                                 : A_DTS
Duration                                 : 2 h 12 min
Bit rate mode                            : Variable
Bit rate                                 : 3 876 kb/s
Channel(s)                               : 6 channels
Channel(s)_Original                      : 7 channels
ChannelLayout_Original                   : C L R Ls Rs LFE Cs
Sampling rate                            : 48.0 kHz
Frame rate                               : 93.750 FPS (512 SPF)
Bit depth                                : 24 bits
Compression mode                         : Lossless
Stream size                              : 3.58 GiB (14%)
Title                                    : DTS-HD MA 5.1-ES
Language                                 : English
Default                                  : Yes
Forced                                   : No

Audio #2
ID                                       : 3
Format                                   : AC-3
Format/Info                              : Audio Coding 3
Commercial name                          : Dolby Digital
Codec ID                                 : A_AC3
Duration                                 : 2 h 12 min
Bit rate mode                            : Constant
Bit rate                                 : 192 kb/s
Channel(s)                               : 2 channels
Channel layout                           : L R
Sampling rate                            : 48.0 kHz
Frame rate                               : 31.250 FPS (1536 SPF)
Compression mode                         : Lossy
Stream size                              : 182 MiB (1%)
Title                                    : Commentary by director William Friedkin
Language                                 : English
Service kind                             : Complete Main
Default                                  : No
Forced                                   : No

Text #1
ID                                       : 4
Format                                   : PGS
Codec ID                                 : S_HDMV/PGS
Codec ID/Info                            : Picture based subtitle format used on BDs/HD-DVDs
Duration                                 : 2 h 10 min
Bit rate                                 : 29.9 kb/s
Count of elements                        : 2984
Stream size                              : 27.8 MiB (0%)
Title                                    : English (SDH)
Language                                 : English
Default                                  : No
Forced                                   : No

Text #2
ID                                       : 5
Format                                   : PGS
Codec ID                                 : S_HDMV/PGS
Codec ID/Info                            : Picture based subtitle format used on BDs/HD-DVDs
Duration                                 : 2 h 11 min
Bit rate                                 : 24.2 kb/s
Count of elements                        : 2632
Stream size                              : 22.7 MiB (0%)
Title                                    : Chinese (Traditional)
Language                                 : Chinese
Default                                  : No
Forced                                   : No

Text #3
ID                                       : 6
Format                                   : PGS
Codec ID                                 : S_HDMV/PGS
Codec ID/Info                            : Picture based subtitle format used on BDs/HD-DVDs
Duration                                 : 2 h 11 min
Bit rate                                 : 21.0 kb/s
Count of elements                        : 2422
Stream size                              : 19.7 MiB (0%)
Title                                    : Croatian
Language                                 : Croatian
Default                                  : No
Forced                                   : No

Text #4
ID                                       : 7
Format                                   : PGS
Codec ID                                 : S_HDMV/PGS
Codec ID/Info                            : Picture based subtitle format used on BDs/HD-DVDs
Duration                                 : 2 h 11 min
Bit rate                                 : 20.6 kb/s
Count of elements                        : 2460
Stream size                              : 19.4 MiB (0%)
Title                                    : Czech
Language                                 : Czech
Default                                  : No
Forced                                   : No

Text #5
ID                                       : 8
Format                                   : PGS
Codec ID                                 : S_HDMV/PGS
Codec ID/Info                            : Picture based subtitle format used on BDs/HD-DVDs
Duration                                 : 2 h 11 min
Bit rate                                 : 20.7 kb/s
Count of elements                        : 1830
Stream size                              : 19.5 MiB (0%)
Title                                    : Danish
Language                                 : Danish
Default                                  : No
Forced                                   : No

Text #6
ID                                       : 9
Format                                   : PGS
Codec ID                                 : S_HDMV/PGS
Codec ID/Info                            : Picture based subtitle format used on BDs/HD-DVDs
Duration                                 : 2 h 10 min
Bit rate                                 : 20.7 kb/s
Count of elements                        : 2192
Stream size                              : 19.4 MiB (0%)
Title                                    : Dutch
Language                                 : Dutch
Default                                  : No
Forced                                   : No

Text #7
ID                                       : 10
Format                                   : PGS
Codec ID                                 : S_HDMV/PGS
Codec ID/Info                            : Picture based subtitle format used on BDs/HD-DVDs
Duration                                 : 2 h 11 min
Bit rate                                 : 19.6 kb/s
Count of elements                        : 1730
Stream size                              : 18.4 MiB (0%)
Title                                    : Estonian
Language                                 : Estonian
Default                                  : No
Forced                                   : No

Text #8
ID                                       : 11
Format                                   : PGS
Codec ID                                 : S_HDMV/PGS
Codec ID/Info                            : Picture based subtitle format used on BDs/HD-DVDs
Duration                                 : 2 h 11 min
Bit rate                                 : 20.4 kb/s
Count of elements                        : 2086
Stream size                              : 19.1 MiB (0%)
Title                                    : Finnish
Language                                 : Finnish
Default                                  : No
Forced                                   : No

Text #9
ID                                       : 12
Format                                   : PGS
Codec ID                                 : S_HDMV/PGS
Codec ID/Info                            : Picture based subtitle format used on BDs/HD-DVDs
Duration                                 : 2 h 11 min
Bit rate                                 : 21.5 kb/s
Count of elements                        : 2464
Stream size                              : 20.2 MiB (0%)
Title                                    : French
Language                                 : French
Default                                  : No
Forced                                   : No

Text #10
ID                                       : 13
Format                                   : PGS
Codec ID                                 : S_HDMV/PGS
Codec ID/Info                            : Picture based subtitle format used on BDs/HD-DVDs
Duration                                 : 2 h 11 min
Bit rate                                 : 25.2 kb/s
Count of elements                        : 2884
Stream size                              : 23.7 MiB (0%)
Title                                    : German (SDH)
Language                                 : German
Default                                  : No
Forced                                   : No

Text #11
ID                                       : 14
Format                                   : PGS
Codec ID                                 : S_HDMV/PGS
Codec ID/Info                            : Picture based subtitle format used on BDs/HD-DVDs
Duration                                 : 2 h 11 min
Bit rate                                 : 22.2 kb/s
Count of elements                        : 2558
Stream size                              : 20.9 MiB (0%)
Title                                    : Greek
Language                                 : Greek
Default                                  : No
Forced                                   : No

Text #12
ID                                       : 15
Format                                   : PGS
Codec ID                                 : S_HDMV/PGS
Codec ID/Info                            : Picture based subtitle format used on BDs/HD-DVDs
Duration                                 : 2 h 10 min
Bit rate                                 : 14.9 kb/s
Count of elements                        : 2378
Stream size                              : 14.0 MiB (0%)
Title                                    : Hebrew
Language                                 : Hebrew
Default                                  : No
Forced                                   : No

Text #13
ID                                       : 16
Format                                   : PGS
Codec ID                                 : S_HDMV/PGS
Codec ID/Info                            : Picture based subtitle format used on BDs/HD-DVDs
Duration                                 : 2 h 11 min
Bit rate                                 : 22.3 kb/s
Count of elements                        : 2502
Stream size                              : 21.0 MiB (0%)
Title                                    : Hungarian
Language                                 : Hungarian
Default                                  : No
Forced                                   : No

Text #14
ID                                       : 17
Format                                   : PGS
Codec ID                                 : S_HDMV/PGS
Codec ID/Info                            : Picture based subtitle format used on BDs/HD-DVDs
Duration                                 : 2 h 10 min
Bit rate                                 : 21.9 kb/s
Count of elements                        : 2424
Stream size                              : 20.4 MiB (0%)
Title                                    : Icelandic
Language                                 : Icelandic
Default                                  : No
Forced                                   : No

Text #15
ID                                       : 18
Format                                   : PGS
Codec ID                                 : S_HDMV/PGS
Codec ID/Info                            : Picture based subtitle format used on BDs/HD-DVDs
Duration                                 : 2 h 11 min
Bit rate                                 : 26.3 kb/s
Count of elements                        : 3016
Stream size                              : 24.7 MiB (0%)
Title                                    : Italian (SDH)
Language                                 : Italian
Default                                  : No
Forced                                   : No

Text #16
ID                                       : 19
Format                                   : PGS
Codec ID                                 : S_HDMV/PGS
Codec ID/Info                            : Picture based subtitle format used on BDs/HD-DVDs
Duration                                 : 2 h 6 min
Bit rate                                 : 17.6 kb/s
Count of elements                        : 2183
Stream size                              : 15.9 MiB (0%)
Title                                    : Japanese
Language                                 : Japanese
Default                                  : No
Forced                                   : No

Text #17
ID                                       : 20
Format                                   : PGS
Codec ID                                 : S_HDMV/PGS
Codec ID/Info                            : Picture based subtitle format used on BDs/HD-DVDs
Duration                                 : 2 h 11 min
Bit rate                                 : 18.9 kb/s
Count of elements                        : 2592
Stream size                              : 17.8 MiB (0%)
Title                                    : Korean
Language                                 : Korean
Default                                  : No
Forced                                   : No

Text #18
ID                                       : 21
Format                                   : PGS
Codec ID                                 : S_HDMV/PGS
Codec ID/Info                            : Picture based subtitle format used on BDs/HD-DVDs
Duration                                 : 2 h 11 min
Bit rate                                 : 19.7 kb/s
Count of elements                        : 2406
Stream size                              : 18.6 MiB (0%)
Title                                    : Norwegian
Language                                 : Norwegian
Default                                  : No
Forced                                   : No

Text #19
ID                                       : 22
Format                                   : PGS
Codec ID                                 : S_HDMV/PGS
Codec ID/Info                            : Picture based subtitle format used on BDs/HD-DVDs
Duration                                 : 2 h 11 min
Bit rate                                 : 23.1 kb/s
Count of elements                        : 2434
Stream size                              : 21.7 MiB (0%)
Title                                    : Polish
Language                                 : Polish
Default                                  : No
Forced                                   : No

Text #20
ID                                       : 23
Format                                   : PGS
Codec ID                                 : S_HDMV/PGS
Codec ID/Info                            : Picture based subtitle format used on BDs/HD-DVDs
Duration                                 : 2 h 11 min
Bit rate                                 : 25.4 kb/s
Count of elements                        : 2564
Stream size                              : 23.9 MiB (0%)
Title                                    : Portuguese (Brazilian)
Language                                 : Portuguese
Default                                  : No
Forced                                   : No

Text #21
ID                                       : 24
Format                                   : PGS
Codec ID                                 : S_HDMV/PGS
Codec ID/Info                            : Picture based subtitle format used on BDs/HD-DVDs
Duration                                 : 2 h 11 min
Bit rate                                 : 22.3 kb/s
Count of elements                        : 2348
Stream size                              : 20.9 MiB (0%)
Title                                    : Portuguese (Iberian)
Language                                 : Portuguese
Default                                  : No
Forced                                   : No

Text #22
ID                                       : 25
Format                                   : PGS
Codec ID                                 : S_HDMV/PGS
Codec ID/Info                            : Picture based subtitle format used on BDs/HD-DVDs
Duration                                 : 2 h 11 min
Bit rate                                 : 21.7 kb/s
Count of elements                        : 2590
Stream size                              : 20.4 MiB (0%)
Title                                    : Romanian
Language                                 : Romanian
Default                                  : No
Forced                                   : No

Text #23
ID                                       : 26
Format                                   : PGS
Codec ID                                 : S_HDMV/PGS
Codec ID/Info                            : Picture based subtitle format used on BDs/HD-DVDs
Duration                                 : 2 h 11 min
Bit rate                                 : 23.2 kb/s
Count of elements                        : 2472
Stream size                              : 21.8 MiB (0%)
Title                                    : Russian
Language                                 : Russian
Default                                  : No
Forced                                   : No

Text #24
ID                                       : 27
Format                                   : PGS
Codec ID                                 : S_HDMV/PGS
Codec ID/Info                            : Picture based subtitle format used on BDs/HD-DVDs
Duration                                 : 2 h 11 min
Bit rate                                 : 20.9 kb/s
Count of elements                        : 2590
Stream size                              : 19.6 MiB (0%)
Title                                    : Slovenian
Language                                 : Slovenian
Default                                  : No
Forced                                   : No

Text #25
ID                                       : 28
Format                                   : PGS
Codec ID                                 : S_HDMV/PGS
Codec ID/Info                            : Picture based subtitle format used on BDs/HD-DVDs
Duration                                 : 2 h 11 min
Bit rate                                 : 22.0 kb/s
Count of elements                        : 2688
Stream size                              : 20.7 MiB (0%)
Title                                    : Spanish (Castilian)
Language                                 : Spanish
Default                                  : No
Forced                                   : No

Text #26
ID                                       : 29
Format                                   : PGS
Codec ID                                 : S_HDMV/PGS
Codec ID/Info                            : Picture based subtitle format used on BDs/HD-DVDs
Duration                                 : 2 h 11 min
Bit rate                                 : 21.1 kb/s
Count of elements                        : 2376
Stream size                              : 19.9 MiB (0%)
Title                                    : Spanish (Latin American)
Language                                 : Spanish
Default                                  : No
Forced                                   : No

Text #27
ID                                       : 30
Format                                   : PGS
Codec ID                                 : S_HDMV/PGS
Codec ID/Info                            : Picture based subtitle format used on BDs/HD-DVDs
Duration                                 : 2 h 10 min
Bit rate                                 : 19.1 kb/s
Count of elements                        : 2378
Stream size                              : 17.8 MiB (0%)
Title                                    : Swedish
Language                                 : Swedish
Default                                  : No
Forced                                   : No

Text #28
ID                                       : 31
Format                                   : PGS
Codec ID                                 : S_HDMV/PGS
Codec ID/Info                            : Picture based subtitle format used on BDs/HD-DVDs
Duration                                 : 2 h 11 min
Bit rate                                 : 24.9 kb/s
Count of elements                        : 2592
Stream size                              : 23.4 MiB (0%)
Title                                    : Thai
Language                                 : Thai
Default                                  : No
Forced                                   : No

Text #29
ID                                       : 32
Format                                   : PGS
Codec ID                                 : S_HDMV/PGS
Codec ID/Info                            : Picture based subtitle format used on BDs/HD-DVDs
Duration                                 : 2 h 11 min
Bit rate                                 : 23.7 kb/s
Count of elements                        : 2474
Stream size                              : 22.3 MiB (0%)
Title                                    : Turkish
Language                                 : Turkish
Default                                  : No
Forced                                   : No

Text #30
ID                                       : 33
Format                                   : PGS
Codec ID                                 : S_HDMV/PGS
Codec ID/Info                            : Picture based subtitle format used on BDs/HD-DVDs
Duration                                 : 2 h 12 min
Bit rate                                 : 37.5 kb/s
Count of elements                        : 3784
Stream size                              : 35.5 MiB (0%)
Title                                    : Chinese (Traditional) (Commentary)
Language                                 : Chinese
Default                                  : No
Forced                                   : No

Text #31
ID                                       : 34
Format                                   : PGS
Codec ID                                 : S_HDMV/PGS
Codec ID/Info                            : Picture based subtitle format used on BDs/HD-DVDs
Duration                                 : 2 h 8 min
Bit rate                                 : 38.8 kb/s
Count of elements                        : 2392
Stream size                              : 35.5 MiB (0%)
Title                                    : Japanese (Commentary)
Language                                 : Japanese
Default                                  : No
Forced                                   : No

Menu
00:00:00.000                             : en:Iraq: Interesting Finds
00:04:19.676                             : en:"Something I Must Do"
00:08:46.609                             : en:Face To Face
00:10:30.380                             : en:Rats In The Attic
00:13:04.784                             : en:On The Set
00:15:00.483                             : en:Chris' Walk Home (Tubular Bells)
00:16:14.432                             : en:Mother And Daughter
00:17:44.438                             : en:Karras Visits His Mother
00:22:10.412                             : en:The Ouija Board
00:23:37.374                             : en:Birthday Ideas
00:25:56.346                             : en:Lost And Unconnected
00:27:52.504                             : en:Attic Noises
00:31:06.073                             : en:Chapel Desecration
00:32:15.517                             : en:Nervous Disorder
00:36:40.532                             : en:The Hospital
00:39:16.062                             : en:Chris' Party
00:41:16.140                             : en:"You're Gonna Die Up There"
00:43:34.779                             : en:"Make It Stop!"
00:44:48.352                             : en:And I Shall Be Healed
00:47:50.659                             : en:Temporal Lobe Diagnosis
00:52:14.465                             : en:"The Sow Is Mine!"
00:54:16.795                             : en:Pathological State?
00:57:42.417                             : en:Death Strikes; Down The Stairs
01:01:02.492                             : en:Psychiatric Exam
01:02:54.145                             : en:From Garfield To Mineo
01:08:07.083                             : en:Heard Of Exorcism?
01:10:32.228                             : en:Scene Of The Crime
01:13:05.423                             : en:Kinderman's Theory
01:17:57.256                             : en:"Do You Know What She Did?"
01:19:33.686                             : en:Just Help Her
01:23:39.598                             : en:Unwelcome Visitor
01:25:55.317                             : en:That Thing Upstairs
01:29:12.430                             : en:Holy Water And Tongues
01:32:56.821                             : en:Chris' Realization
01:35:31.476                             : en:English In Reverse
01:36:41.462                             : en:Body Language
01:37:50.698                             : en:Choosing The Exorcist
01:39:44.979                             : en:Merrin Arrives
01:42:55.127                             : en:Ritual Guidelines
01:44:19.462                             : en:"I Cast You Out"
01:50:13.440                             : en:"The Power Of Christ Compels You"
01:53:54.536                             : en:Karras' Own Demons
01:57:36.466                             : en:Merrin's Final Battle
02:00:59.919                             : en:"Take Me!"
02:02:21.000                             : en:Absolution
02:03:06.588                             : en:A Keepsake From Karras
02:06:40.968                             : en:"I've Got Passes"
02:08:05.595                             : en:End Credits (Fantasia For Strings, Tubular Bells)

Readme/Password

Password & My Message