Fast Download Mirrors

The Eyes of Tammy Faye (2021) • Movie | 2160p.AMZN.WEB-DL.x265.10bit.HDR10Plus.DDP5.1-CM [13.7GB]

The Eyes of Tammy Faye (2021)
The Eyes of Tammy Faye 126min | Biography, Drama, History | September 17, 2021 (United States) Summary: An intimate look at the extraordinary rise, fall and redemption of televangelist Tammy Faye Bakker.
Countries: Canada, United StatesLanguages: English

In the 1970s and ’80s, Tammy Faye and Jim Bakker rose from humble beginnings to create the world’s largest religious broadcasting network and a theme park, and were revered for their message of love, acceptance, and prosperity.

Mirrors: MultiUp, Gdrive[GDTOT, Sharer], 1fichier
Format: MKV
Credits: CM

Download

Video
ID : 1
Format : HEVC
Format/Info : High Efficiency Video Coding
Format profile : Main 10@L5@Main
HDR format : SMPTE ST 2094 App 4, Version 1, HDR10+ Profile B compatible
Codec ID : V_MPEGH/ISO/HEVC
Duration : 2 h 6 min
Bit rate : 14.9 Mb/s
Width : 3 840 pixels
Height : 2 080 pixels
Display aspect ratio : 1.85:1
Frame rate mode : Constant
Frame rate : 23.976 (24000/1001) FPS
Color space : YUV
Chroma subsampling : 4:2:0
Bit depth : 10 bits
Bits/(Pixel*Frame) : 0.078
Stream size : 13.2 GiB (96%)
Default : Yes
Forced : No
Color range : Limited
Color primaries : BT.2020
Transfer characteristics : PQ
Matrix coefficients : BT.2020 non-constant
Mastering display color primaries : BT.2020
Mastering display luminance : min: 0.0001 cd/m2, max: 1000 cd/m2
Maximum Content Light Level : 297 cd/m2
Maximum Frame-Average Light Level : 94 cd/m2

Audio
ID : 2
Format : E-AC-3
Format/Info : Enhanced AC-3
Commercial name : Dolby Digital Plus
Codec ID : A_EAC3
Duration : 2 h 6 min
Bit rate mode : Constant
Bit rate : 640 kb/s
Channel(s) : 6 channels
Channel layout : L R C LFE Ls Rs
Sampling rate : 48.0 kHz
Frame rate : 31.250 FPS (1536 SPF)
Compression mode : Lossy
Stream size : 581 MiB (4%)
Title : English
Language : English
Service kind : Complete Main
Default : No
Forced : No

Text #1
ID : 3
Format : UTF-8
Codec ID : S_TEXT/UTF8
Codec ID/Info : UTF-8 Plain Text
Duration : 1 h 59 min
Bit rate : 87 b/s
Count of elements : 2489
Stream size : 77.1 KiB (0%)
Title : English [SDH]
Language : English
Default : No
Forced : No

Text #2
ID : 4
Format : UTF-8
Codec ID : S_TEXT/UTF8
Codec ID/Info : UTF-8 Plain Text
Duration : 1 h 59 min
Bit rate : 79 b/s
Count of elements : 2271
Stream size : 69.6 KiB (0%)
Title : English
Language : English
Default : No
Forced : No

Text #3
ID : 5
Format : UTF-8
Codec ID : S_TEXT/UTF8
Codec ID/Info : UTF-8 Plain Text
Duration : 2 h 5 min
Bit rate : 66 b/s
Count of elements : 1939
Stream size : 60.7 KiB (0%)
Title : French
Language : French
Default : No
Forced : No

Readme/Password

Password & My Message

Screenshots