Fast Download Mirrors

The Fear (1995) • Movie | 1080p.BluRay.REMUX.AVC.FLAC.2.0-TRiToN

The Fear 102min | Horror | January 20, 1995 (United States) Summary: A group of college seniors spending a weekend at a cottage for a psychological experiment called "fear therapy" find a human-sized wooden figure called Morty, which triggers everyone's deepe... Read all
Countries: United StatesLanguages: English

A weekend of ‘fear therapy’ turns into a nightmare of terror when a mannequin comes to life. Only those with the courage to confront their demons will survive.

Mirrors: MultiUp, Google Drive Index, GDTOT
Format: MKV
Credits: TRiToN

Download

General
Unique ID                                : 208783512831441103331350083481318343132 (0x9D123DEED6C45D87764EB41DBB6241DC)
Complete name                            : The Fear 1995 1080p BluRay REMUX AVC FLAC 2.0-TRiToN.mkv
Format                                   : Matroska
Format version                           : Version 4
File size                                : 26.3 GiB
Duration                                 : 1 h 41 min
Overall bit rate mode                    : Variable
Overall bit rate                         : 36.9 Mb/s
Movie name                               : The Fear (1995)
Encoded date                             : UTC 2021-10-18 14:00:23
Writing application                      : mkvmerge v62.0.0 ('Apollo') 64-bit
Writing library                          : libebml v1.4.2 + libmatroska v1.6.4
IMDB                                     : tt0113043
TMDB                                     : movie/75555

Video
ID                                       : 1
Format                                   : AVC
Format/Info                              : Advanced Video Codec
Format profile                           : High@L4.1
Format settings                          : CABAC / 3 Ref Frames
Format settings, CABAC                   : Yes
Format settings, Reference frames        : 3 frames
Codec ID                                 : V_MPEG4/ISO/AVC
Duration                                 : 1 h 41 min
Bit rate mode                            : Variable
Bit rate                                 : 35.0 Mb/s
Maximum bit rate                         : 40.0 Mb/s
Width                                    : 1 920 pixels
Height                                   : 1 080 pixels
Display aspect ratio                     : 16:9
Frame rate mode                          : Constant
Frame rate                               : 23.976 (24000/1001) FPS
Standard                                 : NTSC
Color space                              : YUV
Chroma subsampling                       : 4:2:0
Bit depth                                : 8 bits
Scan type                                : Progressive
Bits/(Pixel*Frame)                       : 0.704
Stream size                              : 24.9 GiB (95%)
Title                                    : MPEG-4 AVC Video / 34901 kbps / 1080p / 23.976 fps / 16:9 / High Profile 4.1
Writing library                          : x264pro - Adobe CS Exporter Plug-in
Encoding settings                        : cabac=1 / ref=4 / deblock=1:-1:-1 / analyse=0x3:0x133 / me=umh / subme=10 / psy=1 / psy_rd=1.00:0.15 / mixed_ref=1 / me_range=24 / chroma_me=1 / trellis=2 / 8x8dct=1 / cqm=0 / deadzone=21,11 / fast_pskip=1 / chroma_qp_offset=-3 / threads=12 / lookahead_threads=2 / sliced_threads=0 / slices=4 / nr=0 / decimate=1 / interlaced=0 / bluray_compat=1 / constrained_intra=0 / bframes=3 / b_pyramid=1 / b_adapt=2 / b_bias=0 / direct=3 / weightb=1 / open_gop=0 / weightp=1 / keyint=24 / keyint_min=1 / scenecut=40 / intra_refresh=0 / rc_lookahead=24 / rc=2pass / mbtree=1 / bitrate=35000 / ratetol=1.0 / qcomp=0.60 / qpmin=0 / qpmax=69 / qpstep=4 / cplxblur=20.0 / qblur=0.5 / vbv_maxrate=40000 / vbv_bufsize=30000 / nal_hrd=vbr / ip_ratio=1.40 / aq=1:1.00
Language                                 : zxx
Default                                  : Yes
Forced                                   : No
Color range                              : Limited
Color primaries                          : BT.709
Transfer characteristics                 : BT.709
Matrix coefficients                      : BT.709

Audio #1
ID                                       : 2
Format                                   : FLAC
Format/Info                              : Free Lossless Audio Codec
Codec ID                                 : A_FLAC
Duration                                 : 1 h 41 min
Bit rate mode                            : Variable
Bit rate                                 : 1 540 kb/s
Channel(s)                               : 2 channels
Channel layout                           : L R
Sampling rate                            : 48.0 kHz
Frame rate                               : 11.719 FPS (4096 SPF)
Bit depth                                : 24 bits
Compression mode                         : Lossless
Stream size                              : 1.10 GiB (4%)
Title                                    : FLAC Audio / 2.0 / 48 kHz / 1540 kbps / 24-bit
Writing library                          : libFLAC 1.3.3 (UTC 2019-08-04)
Language                                 : English
Default                                  : Yes
Forced                                   : No

Audio #2
ID                                       : 3
Format                                   : AC-3
Format/Info                              : Audio Coding 3
Commercial name                          : Dolby Digital
Codec ID                                 : A_AC3
Duration                                 : 1 h 41 min
Bit rate mode                            : Constant
Bit rate                                 : 192 kb/s
Channel(s)                               : 2 channels
Channel layout                           : L R
Sampling rate                            : 48.0 kHz
Frame rate                               : 31.250 FPS (1536 SPF)
Compression mode                         : Lossy
Stream size                              : 140 MiB (0%)
Title                                    : Commentary by director Vincent Roberts moderated by Brad Henderson of Vinegar Syndrome
Language                                 : English
Service kind                             : Complete Main
Default                                  : No
Forced                                   : No

Audio #3
ID                                       : 4
Format                                   : AC-3
Format/Info                              : Audio Coding 3
Commercial name                          : Dolby Digital
Codec ID                                 : A_AC3
Duration                                 : 1 h 41 min
Bit rate mode                            : Constant
Bit rate                                 : 192 kb/s
Channel(s)                               : 2 channels
Channel layout                           : L R
Sampling rate                            : 48.0 kHz
Frame rate                               : 31.250 FPS (1536 SPF)
Compression mode                         : Lossy
Stream size                              : 140 MiB (0%)
Title                                    : Commentary by executive producer Greg H. Sims moderated by Brad Henderson of Vinegar Syndrome
Language                                 : English
Service kind                             : Complete Main
Default                                  : No
Forced                                   : No

Text
ID                                       : 5
Format                                   : PGS
Codec ID                                 : S_HDMV/PGS
Codec ID/Info                            : Picture based subtitle format used on BDs/HD-DVDs
Duration                                 : 1 h 41 min
Bit rate                                 : 26.5 kb/s
Count of elements                        : 3635
Stream size                              : 19.3 MiB (0%)
Title                                    : SDH
Language                                 : English
Default                                  : No
Forced                                   : No

Menu
00:00:00.000                             : en:Reel 1
00:18:37.617                             : en:Reel 2
00:38:11.289                             : en:Reel 3
00:53:46.724                             : en:Reel 4
01:12:39.855                             : en:Reel 5
01:26:26.181                             : en:Reel 6


Readme/Password

Password & My Message

Screenshots