Fast Download Mirrors

The Green Knight (2021) • Movie | 1080p.BluRay.Remux.AVC.Atmos-PmP

The Green Knight (2021) • Movie
The Green Knight (2021) 130min | Adventure, Drama, Fantasy | July 30, 2021 (United States) Summary: A fantasy re-telling of the medieval story of Sir Gawain and the Green Knight.
Countries: Ireland, Canada, United States, United KingdomLanguages: English

An epic fantasy adventure based on the timeless Arthurian legend, The Green Knight tells the story of Sir Gawain, King Arthur’s reckless and headstrong nephew, who embarks on a daring quest to confront the eponymous Green Knight, a gigantic emerald-skinned stranger and tester of men.

Mirrors: 1fichier, MultiUp, Gdrive[GDTOT, Sharer], Gdrive Index
Format: MKV
Credits: PmP

Download

Complete name : The.Green.Knight.2021.1080p.BluRay.Remux.AVC.Atmos-PmP.mkv
Format : Matroska
Format version : Version 4
File size : 33.6 GiB
Duration : 2 h 9 min
Overall bit rate mode : Variable
Overall bit rate : 37.0 Mb/s
Movie name : The Green Knight (2021)
Encoded date : UTC 2021-10-03 16:15:11
Writing application : mkvmerge v61.0.0 ('So') 64-bit
Writing library : libebml v1.4.2 + libmatroska v1.6.4
IMDB : tt9243804
TMDB : movie/559907

Video
ID : 1
Format : AVC
Format/Info : Advanced Video Codec
Format profile : High@L4.1
Format settings : CABAC / 4 Ref Frames
Format settings, CABAC : Yes
Format settings, Reference frames : 4 frames
Codec ID : V_MPEG4/ISO/AVC
Duration : 2 h 9 min
Bit rate mode : Variable
Bit rate : 32.8 Mb/s
Maximum bit rate : 37.0 Mb/s
Width : 1 920 pixels
Height : 1 080 pixels
Display aspect ratio : 16:9
Frame rate mode : Constant
Frame rate : 23.976 (24000/1001) FPS
Color space : YUV
Chroma subsampling : 4:2:0
Bit depth : 8 bits
Scan type : Progressive
Bits/(Pixel*Frame) : 0.660
Stream size : 29.8 GiB (89%)
Title : MPEG-4 AVC Video / 33355 kbps / 1080p / 23.976 fps / 16:9 / High Profile 4.1
Language : English
Default : Yes
Forced : No

Audio #1
ID : 2
Format : MLP FBA 16-ch
Format/Info : Meridian Lossless Packing FBA with 16-channel presentation
Commercial name : Dolby TrueHD with Dolby Atmos
Codec ID : A_TRUEHD
Duration : 2 h 9 min
Bit rate mode : Variable
Bit rate : 3 476 kb/s
Maximum bit rate : 5 781 kb/s
Channel(s) : 8 channels
Channel layout : L R C LFE Ls Rs Lb Rb
Sampling rate : 48.0 kHz
Frame rate : 1 200.000 FPS (40 SPF)
Compression mode : Lossless
Stream size : 3.15 GiB (9%)
Title : Dolby TrueHD/Atmos Audio / 7.1+11 objects / 48 kHz / 3476 kbps / 24-bit
Language : English
Default : Yes
Forced : No
Number of dynamic objects : 11
Bed channel count : 1 channel
Bed channel configuration : LFE

Audio #2
ID : 3
Format : AC-3
Format/Info : Audio Coding 3
Commercial name : Dolby Digital
Format settings : Dolby Surround EX
Codec ID : A_AC3
Duration : 2 h 9 min
Bit rate mode : Constant
Bit rate : 640 kb/s
Channel(s) : 6 channels
Channel layout : L R C LFE Ls Rs
Sampling rate : 48.0 kHz
Frame rate : 31.250 FPS (1536 SPF)
Compression mode : Lossy
Stream size : 594 MiB (2%)
Title : Compatibility Track / Dolby Digital Audio / 5.1-EX / 48 kHz / 640 kbps
Language : English
Service kind : Complete Main
Default : No
Forced : No

Text #1
ID : 4
Format : PGS
Codec ID : S_HDMV/PGS
Codec ID/Info : Picture based subtitle format used on BDs/HD-DVDs
Duration : 2 h 8 min
Bit rate : 19.8 kb/s
Count of elements : 2374
Stream size : 18.3 MiB (0%)
Title : SDH
Language : English
Default : No
Forced : No

Text #2
ID : 5
Format : PGS
Codec ID : S_HDMV/PGS
Codec ID/Info : Picture based subtitle format used on BDs/HD-DVDs
Duration : 2 h 9 min
Bit rate : 12.9 kb/s
Count of elements : 1506
Stream size : 11.9 MiB (0%)
Title : Latin American
Language : Spanish
Default : No
Forced : No

Menu
00:00:00.000 : A New Tale
00:01:05.815 : Festive Spirit
00:06:54.956 : Seated With the King
00:11:24.725 : No Tale to Tell
00:15:04.445 : Christmas Game
00:18:47.375 : Challenge Accepted
00:25:13.220 : ...a Too Quick Year
00:28:53.606 : Held to the Light
00:32:26.694 : Prayer and Guidance
00:36:05.329 : The Journey Out
00:41:46.504 : ...a Kindness
00:45:56.294 : Tweren't Enough
00:48:36.538 : Helpless
00:54:26.096 : ...a Meeting With St. Winifred
00:58:22.289 : Need My Head
01:04:11.472 : ...an Interlude
01:09:30.916 : Valley of Giants
01:14:42.978 : Among Friends
01:16:12.358 : ...an Exchange of Winnings
01:22:58.974 : Green Conquers All
01:30:42.145 : Secret Gift
01:37:10.533 : ...a Beheading at the Green Chapel
01:48:51.691 : The Voyage Home
01:56:07.251 : King of Deceit
02:04:31.630 : End Credits

THE GREEN KNIGHT (2021) • MOVIE | 1080p.AMZN.WEB-DL + 2160p.WEB-DL.x265
https://ambassadorddl.site/the-green-knight-2021-movie/
Readme/Password

Password & My Message

Screenshots