Fast Download Mirrors

The King’s Man (2021) • Movie | 1080p.Remux.AVC.DTS-HD.MA.7.1-playBD [27.02 GB]

The King's Man Action, Adventure, Thriller | December 22, 2021 (United States) Summary: In the early years of the 20th century, the Kingsman agency is formed to stand against a cabal plotting a war to wipe out millions.
Countries: United Kingdom, United StatesLanguages: English, Latin, German, French, Russian

As a collection of history’s worst tyrants and criminal masterminds gather to plot a war to wipe out millions, one man must race against time to stop them.

Mirrors: GDrive [Gadrive, GDToT, Index, Sharer], MultiUp
Format: MKV
Credits: playBD

Download

General
Unique ID                                : 254121401858418945065054990089360119505 (0xBF2E0071B271169D325925E4E57E16D1)
Complete name                            : The.Kings.Man.2021.1080p.Remux.AVC.DTS-HD.MA.7.1-playBD.mkv
Format                                   : Matroska
Format version                           : Version 4
File size                                : 27.0 GiB
Duration                                 : 2 h 10 min
Overall bit rate mode                    : Variable
Overall bit rate                         : 29.6 Mb/s
Encoded date                             : UTC 2022-02-14 15:28:26
Writing application                      : mkvmerge v56.1.0 ('My Friend') 64-bit
Writing library                          : libebml v1.4.2 + libmatroska v1.6.4

Video
ID                                       : 2
Format                                   : AVC
Format/Info                              : Advanced Video Codec
Format profile                           : High@L4.1
Format settings                          : CABAC / 4 Ref Frames
Format settings, CABAC                   : Yes
Format settings, Reference frames        : 4 frames
Codec ID                                 : V_MPEG4/ISO/AVC
Duration                                 : 2 h 10 min
Bit rate mode                            : Variable
Bit rate                                 : 24.9 Mb/s
Maximum bit rate                         : 37.2 Mb/s
Width                                    : 1 920 pixels
Height                                   : 1 080 pixels
Display aspect ratio                     : 16:9
Frame rate mode                          : Constant
Frame rate                               : 23.976 (24000/1001) FPS
Color space                              : YUV
Chroma subsampling                       : 4:2:0
Bit depth                                : 8 bits
Scan type                                : Progressive
Bits/(Pixel*Frame)                       : 0.501
Stream size                              : 22.7 GiB (84%)
Default                                  : No
Forced                                   : No

Audio
ID                                       : 3
Format                                   : DTS XLL
Format/Info                              : Digital Theater Systems
Commercial name                          : DTS-HD Master Audio
Codec ID                                 : A_DTS
Duration                                 : 2 h 10 min
Bit rate mode                            : Variable
Bit rate                                 : 4 692 kb/s
Channel(s)                               : 8 channels
Channel layout                           : C L R LFE Lb Rb Lss Rss
Sampling rate                            : 48.0 kHz
Frame rate                               : 93.750 FPS (512 SPF)
Bit depth                                : 24 bits
Compression mode                         : Lossless
Stream size                              : 4.28 GiB (16%)
Language                                 : English
Default                                  : Yes
Forced                                   : No

Text #1
ID                                       : 1
Format                                   : PGS
Muxing mode                              : zlib
Codec ID                                 : S_HDMV/PGS
Codec ID/Info                            : Picture based subtitle format used on BDs/HD-DVDs
Duration                                 : 2 h 3 min
Bit rate                                 : 38.7 kb/s
Count of elements                        : 3424
Stream size                              : 34.0 MiB (0%)
Language                                 : English
Default                                  : No
Forced                                   : No

Text #2
ID                                       : 4
Format                                   : UTF-8
Codec ID                                 : S_TEXT/UTF8
Codec ID/Info                            : UTF-8 Plain Text
Duration                                 : 2 h 3 min
Bit rate                                 : 49 b/s
Count of elements                        : 1293
Stream size                              : 44.7 KiB (0%)
Language                                 : Romanian
Default                                  : No
Forced                                   : No

Menu
00:00:00.000                             : :Chapter 01
00:07:23.985                             : :Chapter 02
00:11:07.375                             : :Chapter 03
00:14:37.794                             : :Chapter 04
00:19:03.184                             : :Chapter 05
00:20:50.291                             : :Chapter 06
00:28:24.286                             : :Chapter 07
00:31:09.284                             : :Chapter 08
00:34:30.860                             : :Chapter 09
00:38:11.289                             : :Chapter 10
00:42:02.854                             : :Chapter 11
00:47:19.378                             : :Chapter 12
00:58:30.924                             : :Chapter 13
00:59:12.799                             : :Chapter 14
01:02:24.908                             : :Chapter 15
01:05:22.585                             : :Chapter 16
01:07:16.449                             : :Chapter 17
01:09:08.853                             : :Chapter 18
01:13:53.387                             : :Chapter 19
01:26:49.996                             : :Chapter 20
01:33:11.336                             : :Chapter 21
01:36:39.002                             : :Chapter 22
01:39:39.015                             : :Chapter 23
01:44:25.676                             : :Chapter 24
01:48:28.961                             : :Chapter 25
01:58:04.536                             : :Chapter 26
02:01:58.853                             : :Chapter 27

Readme/Password

Password & My Message