Fast Download Mirrors

The King’s Man (2021) • Movie | 2160p.UHD.BluRay.REMUX.HDR.HEVC.Atmos-PiRaTeS [51.07 GB]

The King's Man Action, Adventure, Thriller | December 22, 2021 (United States) Summary: In the early years of the 20th century, the Kingsman agency is formed to stand against a cabal plotting a war to wipe out millions.
Countries: United Kingdom, United StatesLanguages: English, Latin, German, French, Russian

As a collection of history’s worst tyrants and criminal masterminds gather to plot a war to wipe out millions, one man must race against time to stop them.

Mirrors: GDrive [Gadrive, GDToT, Index, Sharer], MultiUp
Format: MKV
Credits: PiRaTeS

Download

General
Unique ID                                : 13293663969361150267278071301033678688 (0xA00443CAE624504AD33193FF863D760)
Complete name                            : The.Kings.Man.2021.2160p.UHD.BluRay.REMUX.HDR.HEVC.Atmos-PiRaTeS.mkv
Format                                   : Matroska
Format version                           : Version 4
File size                                : 51.1 GiB
Duration                                 : 2 h 10 min
Overall bit rate mode                    : Variable
Overall bit rate                         : 56.0 Mb/s
Encoded date                             : UTC 2022-02-19 20:33:44
Writing application                      : mkvmerge v65.0.0 ('Too Much') 64-bit
Writing library                          : libebml v1.4.2 + libmatroska v1.6.4

Video
ID                                       : 1
Format                                   : HEVC
Format/Info                              : High Efficiency Video Coding
Format profile                           : Main 10@L5.1@High
HDR format                               : SMPTE ST 2086, HDR10 compatible
Codec ID                                 : V_MPEGH/ISO/HEVC
Duration                                 : 2 h 10 min
Bit rate                                 : 48.2 Mb/s
Width                                    : 3 840 pixels
Height                                   : 2 160 pixels
Display aspect ratio                     : 16:9
Frame rate mode                          : Constant
Frame rate                               : 23.976 (24000/1001) FPS
Color space                              : YUV
Chroma subsampling                       : 4:2:0 (Type 2)
Bit depth                                : 10 bits
Bits/(Pixel*Frame)                       : 0.242
Stream size                              : 44.0 GiB (86%)
Language                                 : English
Default                                  : Yes
Forced                                   : No
Color range                              : Limited
Color primaries                          : BT.2020
Transfer characteristics                 : PQ
Matrix coefficients                      : BT.2020 non-constant
Mastering display color primaries        : Display P3
Mastering display luminance              : min: 0.0050 cd/m2, max: 1000 cd/m2

Audio
ID                                       : 2
Format                                   : MLP FBA 16-ch
Format/Info                              : Meridian Lossless Packing FBA with 16-channel presentation
Commercial name                          : Dolby TrueHD with Dolby Atmos
Codec ID                                 : A_TRUEHD
Duration                                 : 2 h 10 min
Bit rate mode                            : Variable
Bit rate                                 : 7 586 kb/s
Maximum bit rate                         : 12.5 Mb/s
Channel(s)                               : 8 channels
Channel layout                           : L R C LFE Ls Rs Lb Rb
Sampling rate                            : 48.0 kHz
Frame rate                               : 1 200.000 FPS (40 SPF)
Compression mode                         : Lossless
Stream size                              : 6.92 GiB (14%)
Language                                 : English
Default                                  : Yes
Forced                                   : No
Number of dynamic objects                : 13
Bed channel count                        : 1 channel
Bed channel configuration                : LFE

Text #1
ID                                       : 3
Format                                   : PGS
Codec ID                                 : S_HDMV/PGS
Codec ID/Info                            : Picture based subtitle format used on BDs/HD-DVDs
Duration                                 : 2 h 3 min
Bit rate                                 : 38.7 kb/s
Count of elements                        : 3424
Stream size                              : 34.0 MiB (0%)
Language                                 : English
Default                                  : No
Forced                                   : No

Text #2
ID                                       : 4
Format                                   : PGS
Codec ID                                 : S_HDMV/PGS
Codec ID/Info                            : Picture based subtitle format used on BDs/HD-DVDs
Duration                                 : 2 h 9 min
Bit rate                                 : 35.6 kb/s
Count of elements                        : 2716
Stream size                              : 33.0 MiB (0%)
Language                                 : French
Default                                  : No
Forced                                   : No

Text #3
ID                                       : 5
Format                                   : PGS
Codec ID                                 : S_HDMV/PGS
Codec ID/Info                            : Picture based subtitle format used on BDs/HD-DVDs
Duration                                 : 2 h 3 min
Bit rate                                 : 34.3 kb/s
Count of elements                        : 2652
Stream size                              : 30.3 MiB (0%)
Language                                 : Spanish
Default                                  : No
Forced                                   : No

Text #4
ID                                       : 6
Format                                   : PGS
Codec ID                                 : S_HDMV/PGS
Codec ID/Info                            : Picture based subtitle format used on BDs/HD-DVDs
Duration                                 : 2 h 9 min
Bit rate                                 : 22.5 kb/s
Count of elements                        : 2457
Stream size                              : 20.8 MiB (0%)
Language                                 : Japanese
Default                                  : No
Forced                                   : No

Menu
00:00:00.000                             : en:Chapter 01
00:07:23.902                             : en:Chapter 02
00:07:23.985                             : en:Chapter 03
00:11:07.292                             : en:Chapter 04
00:11:07.375                             : en:Chapter 05
00:14:37.710                             : en:Chapter 06
00:14:37.794                             : en:Chapter 07
00:19:03.100                             : en:Chapter 08
00:19:03.184                             : en:Chapter 09
00:20:50.207                             : en:Chapter 10
00:20:50.291                             : en:Chapter 11
00:28:24.202                             : en:Chapter 12
00:28:24.286                             : en:Chapter 13
00:31:09.201                             : en:Chapter 14
00:31:09.284                             : en:Chapter 15
00:34:30.777                             : en:Chapter 16
00:34:30.860                             : en:Chapter 17
00:38:11.206                             : en:Chapter 18
00:38:11.289                             : en:Chapter 19
00:42:02.770                             : en:Chapter 20
00:42:02.854                             : en:Chapter 21
00:47:19.295                             : en:Chapter 22
00:47:19.378                             : en:Chapter 23
00:58:30.841                             : en:Chapter 24
00:58:30.924                             : en:Chapter 25
00:59:12.716                             : en:Chapter 26
00:59:12.799                             : en:Chapter 27
01:02:24.824                             : en:Chapter 28
01:02:24.908                             : en:Chapter 29
01:05:22.502                             : en:Chapter 30
01:05:22.585                             : en:Chapter 31
01:07:16.366                             : en:Chapter 32
01:07:16.449                             : en:Chapter 33
01:09:08.770                             : en:Chapter 34
01:09:08.853                             : en:Chapter 35
01:13:53.304                             : en:Chapter 36
01:13:53.387                             : en:Chapter 37
01:26:49.913                             : en:Chapter 38
01:26:49.996                             : en:Chapter 39
01:33:11.252                             : en:Chapter 40
01:33:11.336                             : en:Chapter 41
01:36:38.918                             : en:Chapter 42
01:36:39.002                             : en:Chapter 43
01:39:38.931                             : en:Chapter 44
01:39:39.015                             : en:Chapter 45
01:44:25.593                             : en:Chapter 46
01:44:25.676                             : en:Chapter 47
01:48:28.877                             : en:Chapter 48
01:48:28.961                             : en:Chapter 49
01:58:04.452                             : en:Chapter 50
01:58:04.536                             : en:Chapter 51
02:01:58.770                             : en:Chapter 52
02:01:58.853                             : en:Chapter 53
02:10:38.039                             : en:Chapter 54
02:10:38.122                             : en:Chapter 55

Readme/Password

Password & My Message