Fast Download Mirrors

The Last Duel (2021) • Movie | UHD.BluRay.2160p.TrueHD.Atmos.7.1.DV.HEVC.HYBRID.REMUX-FraMeSToR [52.3GB]

The Last Duel (2021)
The Last Duel Action, Drama, History, Thriller | October 15, 2021 (United States) Summary: King Charles VI declares that Knight Jean de Carrouges settle his dispute with his squire by challenging him to a duel.
Countries: United States, United KingdomLanguages: English, German

King Charles VI declares that Knight Jean de Carrouges settle his dispute with his squire, Jacques Le Gris, by challenging him to a duel.

Mirrors: 1fichier, Gdrive[GDTOT, Sharer, Gadrive], Gdrive Index
Format: MKV
Credits: FraMeSToR
Note: This is a HYBRID DV REMUX, including the WEB DV metadata converted to P8 and synced.

Download

General
Unique ID                                : 280044204022369358303102485639275042498 (0xD2AE8D44977C8AE1788CF921CFAD56C2)
Complete name                            : The.Last.Duel.2021.UHD.BluRay.2160p.TrueHD.Atmos.7.1.DV.HEVC.HYBRID.REMUX-FraMeSToR.mkv
Format                                   : Matroska
Format version                           : Version 4
File size                                : 52.3 GiB
Duration                                 : 2 h 32 min
Overall bit rate mode                    : Variable
Overall bit rate                         : 49.1 Mb/s
Movie name                               : The Last Duel 4K
Encoded date                             : UTC 2021-12-07 12:39:04
Writing application                      : mkvmerge v63.0.0 ('Everything') 64-bit
Writing library                          : libebml v1.4.2 + libmatroska v1.6.4
IMDB                                     : tt4244994
TMDB                                     : movie/617653

Video
ID                                       : 1
Format                                   : HEVC
Format/Info                              : High Efficiency Video Coding
Format profile                           : Main 10@L5.1@High
HDR format                               : Dolby Vision, Version 1.0, dvhe.08.06, BL+RPU, HDR10 compatible / SMPTE ST 2086, HDR10 compatible
Codec ID                                 : V_MPEGH/ISO/HEVC
Duration                                 : 2 h 32 min
Bit rate                                 : 43.6 Mb/s
Width                                    : 3 840 pixels
Height                                   : 2 160 pixels
Display aspect ratio                     : 16:9
Frame rate mode                          : Constant
Frame rate                               : 23.976 (24000/1001) FPS
Color space                              : YUV
Chroma subsampling                       : 4:2:0 (Type 2)
Bit depth                                : 10 bits
Bits/(Pixel*Frame)                       : 0.219
Stream size                              : 46.5 GiB (89%)
Default                                  : Yes
Forced                                   : No
Color range                              : Limited
Color primaries                          : BT.2020
Transfer characteristics                 : PQ
Matrix coefficients                      : BT.2020 non-constant
Mastering display color primaries        : Display P3
Mastering display luminance              : min: 0.0050 cd/m2, max: 1000 cd/m2

Audio #1
ID                                       : 2
Format                                   : MLP FBA 16-ch
Format/Info                              : Meridian Lossless Packing FBA with 16-channel presentation
Commercial name                          : Dolby TrueHD with Dolby Atmos
Codec ID                                 : A_TRUEHD
Duration                                 : 2 h 32 min
Bit rate mode                            : Variable
Bit rate                                 : 4 446 kb/s
Maximum bit rate                         : 8 448 kb/s
Channel(s)                               : 8 channels
Channel layout                           : L R C LFE Ls Rs Lb Rb
Sampling rate                            : 48.0 kHz
Frame rate                               : 1 200.000 FPS (40 SPF)
Compression mode                         : Lossless
Stream size                              : 4.74 GiB (9%)
Title                                    : TrueHD Atmos 7.1
Language                                 : English
Default                                  : Yes
Forced                                   : No
Number of dynamic objects                : 13
Bed channel count                        : 1 channel
Bed channel configuration                : LFE

Audio #2
ID                                       : 3
Format                                   : AC-3
Format/Info                              : Audio Coding 3
Commercial name                          : Dolby Digital
Codec ID                                 : A_AC3
Duration                                 : 2 h 32 min
Bit rate mode                            : Constant
Bit rate                                 : 640 kb/s
Channel(s)                               : 6 channels
Channel layout                           : L R C LFE Ls Rs
Sampling rate                            : 48.0 kHz
Frame rate                               : 31.250 FPS (1536 SPF)
Compression mode                         : Lossy
Stream size                              : 699 MiB (1%)
Title                                    : AC-3 5.1
Language                                 : English
Service kind                             : Complete Main
Default                                  : No
Forced                                   : No

Text #1
ID                                       : 4
Format                                   : PGS
Codec ID                                 : S_HDMV/PGS
Codec ID/Info                            : Picture based subtitle format used on BDs/HD-DVDs
Duration                                 : 23 s 273 ms
Bit rate                                 : 33.7 kb/s
Count of elements                        : 12
Stream size                              : 95.6 KiB (0%)
Title                                    : English (Forced only)
Language                                 : English
Default                                  : Yes
Forced                                   : Yes

Text #2
ID                                       : 5
Format                                   : PGS
Codec ID                                 : S_HDMV/PGS
Codec ID/Info                            : Picture based subtitle format used on BDs/HD-DVDs
Duration                                 : 2 h 28 min
Bit rate                                 : 41.7 kb/s
Count of elements                        : 4336
Stream size                              : 44.4 MiB (0%)
Title                                    : English (SDH)
Language                                 : English
Default                                  : No
Forced                                   : No

Text #3
ID                                       : 6
Format                                   : PGS
Codec ID                                 : S_HDMV/PGS
Codec ID/Info                            : Picture based subtitle format used on BDs/HD-DVDs
Duration                                 : 2 h 31 min
Bit rate                                 : 27.3 kb/s
Count of elements                        : 3386
Stream size                              : 29.6 MiB (0%)
Title                                    : Czech
Language                                 : Czech
Default                                  : No
Forced                                   : No

Text #4
ID                                       : 7
Format                                   : PGS
Codec ID                                 : S_HDMV/PGS
Codec ID/Info                            : Picture based subtitle format used on BDs/HD-DVDs
Duration                                 : 2 h 31 min
Bit rate                                 : 28.9 kb/s
Count of elements                        : 2600
Stream size                              : 31.4 MiB (0%)
Title                                    : Danish
Language                                 : Danish
Default                                  : No
Forced                                   : No

Text #5
ID                                       : 8
Format                                   : PGS
Codec ID                                 : S_HDMV/PGS
Codec ID/Info                            : Picture based subtitle format used on BDs/HD-DVDs
Duration                                 : 2 h 31 min
Bit rate                                 : 31.7 kb/s
Count of elements                        : 3392
Stream size                              : 34.4 MiB (0%)
Title                                    : Finnish
Language                                 : Finnish
Default                                  : No
Forced                                   : No

Text #6
ID                                       : 9
Format                                   : PGS
Codec ID                                 : S_HDMV/PGS
Codec ID/Info                            : Picture based subtitle format used on BDs/HD-DVDs
Duration                                 : 2 h 31 min
Bit rate                                 : 30.3 kb/s
Count of elements                        : 3248
Stream size                              : 32.8 MiB (0%)
Title                                    : French
Language                                 : French
Default                                  : No
Forced                                   : No

Text #7
ID                                       : 10
Format                                   : PGS
Codec ID                                 : S_HDMV/PGS
Codec ID/Info                            : Picture based subtitle format used on BDs/HD-DVDs
Duration                                 : 2 h 31 min
Bit rate                                 : 31.2 kb/s
Count of elements                        : 3224
Stream size                              : 33.8 MiB (0%)
Title                                    : German
Language                                 : German
Default                                  : No
Forced                                   : No

Text #8
ID                                       : 11
Format                                   : PGS
Codec ID                                 : S_HDMV/PGS
Codec ID/Info                            : Picture based subtitle format used on BDs/HD-DVDs
Duration                                 : 2 h 31 min
Bit rate                                 : 28.3 kb/s
Count of elements                        : 3318
Stream size                              : 30.7 MiB (0%)
Title                                    : Italian
Language                                 : Italian
Default                                  : No
Forced                                   : No

Text #9
ID                                       : 12
Format                                   : PGS
Codec ID                                 : S_HDMV/PGS
Codec ID/Info                            : Picture based subtitle format used on BDs/HD-DVDs
Duration                                 : 2 h 31 min
Bit rate                                 : 27.7 kb/s
Count of elements                        : 3382
Stream size                              : 30.0 MiB (0%)
Title                                    : Norwegian
Language                                 : Norwegian
Default                                  : No
Forced                                   : No

Text #10
ID                                       : 13
Format                                   : PGS
Codec ID                                 : S_HDMV/PGS
Codec ID/Info                            : Picture based subtitle format used on BDs/HD-DVDs
Duration                                 : 2 h 31 min
Bit rate                                 : 24.1 kb/s
Count of elements                        : 3052
Stream size                              : 26.2 MiB (0%)
Title                                    : Polish
Language                                 : Polish
Default                                  : No
Forced                                   : No

Text #11
ID                                       : 14
Format                                   : PGS
Codec ID                                 : S_HDMV/PGS
Codec ID/Info                            : Picture based subtitle format used on BDs/HD-DVDs
Duration                                 : 2 h 31 min
Bit rate                                 : 27.0 kb/s
Count of elements                        : 3384
Stream size                              : 29.3 MiB (0%)
Title                                    : Spanish (Castilian)
Language                                 : Spanish
Default                                  : No
Forced                                   : No

Text #12
ID                                       : 15
Format                                   : PGS
Codec ID                                 : S_HDMV/PGS
Codec ID/Info                            : Picture based subtitle format used on BDs/HD-DVDs
Duration                                 : 2 h 31 min
Bit rate                                 : 27.8 kb/s
Count of elements                        : 2570
Stream size                              : 30.1 MiB (0%)
Title                                    : Swedish
Language                                 : Swedish
Default                                  : No
Forced                                   : No

Menu
00:00:00.000                             : en:Chapter 1
00:05:02.052                             : en:Chapter 2
00:09:42.457                             : en:Chapter 3
00:17:43.646                             : en:Chapter 4
00:25:59.933                             : en:Chapter 5
00:33:25.295                             : en:Chapter 6
00:38:51.371                             : en:Chapter 7
00:42:34.594                             : en:Chapter 8
00:54:23.510                             : en:Chapter 9
01:05:52.490                             : en:Chapter 10
01:17:07.456                             : en:Chapter 11
01:25:24.703                             : en:Chapter 12
01:32:50.273                             : en:Chapter 13
01:40:17.178                             : en:Chapter 14
01:52:06.720                             : en:Chapter 15
02:05:28.521                             : en:Chapter 16
02:22:25.537                             : en:Chapter 17

Readme/Password

Password & My Message