Fast Download Mirrors

The Man from U.N.C.L.E. (2015) • Movie | 1080p.Bluray.Remux.AVC.TrueHD.Atmos.7.1 – KRaLiMaRKo [25.6GB]

The Man from U.N.C.L.E. (2015)
The Man from U.N.C.L.E. Action, Adventure, Comedy | August 14, 2015 (United States) Summary: In the early 1960s, CIA agent Napoleon Solo and KGB operative Illya Kuryakin participate in a joint mission against a mysterious criminal organization, which is working to proliferate nuclea... Read all
Countries: United States, United KingdomLanguages: English, Russian, German, Italian

At the height of the Cold War, a mysterious criminal organization plans to use nuclear weapons and technology to upset the fragile balance of power between the United States and Soviet Union. CIA agent Napoleon Solo and KGB agent Illya Kuryakin are forced to put aside their hostilities and work together to stop the evildoers in their tracks. The duo’s only lead is the daughter of a missing German scientist, whom they must find soon to prevent a global catastrophe.

Mirrors: 1fichier, MultiUp, Gdrive[GDTOT, Sharer, GADrive], Gdrive Index
Format: MKV
Credits: KRaLiMaRKo

Download

General
Complete name                            : The Man from U.N.C.L.E. 2015 1080p Blu-ray Remux AVC TrueHD Atmos 7.1 - KRaLiMaRKo.mkv
Format                                   : Matroska
Format version                           : Version 4
File size                                : 25.6 GiB
Duration                                 : 1 h 56 min
Overall bit rate mode                    : Variable
Overall bit rate                         : 31.5 Mb/s
Encoded date                             : UTC 2015-11-07 10:53:02
Writing application                      : mkvmerge v8.5.1 ('Where you lead I will follow') 64bit
Writing library                          : libebml v1.3.3 + libmatroska v1.4.4

Video
ID                                       : 1
Format                                   : AVC
Format/Info                              : Advanced Video Codec
Format profile                           : High@L4.1
Format settings                          : CABAC / 2 Ref Frames
Format settings, CABAC                   : Yes
Format settings, Reference frames        : 2 frames
Codec ID                                 : V_MPEG4/ISO/AVC
Duration                                 : 1 h 56 min
Bit rate mode                            : Variable
Bit rate                                 : 25.9 Mb/s
Width                                    : 1 920 pixels
Height                                   : 1 080 pixels
Display aspect ratio                     : 16:9
Frame rate mode                          : Constant
Frame rate                               : 23.976 (24000/1001) FPS
Color space                              : YUV
Chroma subsampling                       : 4:2:0
Bit depth                                : 8 bits
Scan type                                : Progressive
Bits/(Pixel*Frame)                       : 0.522
Stream size                              : 21.1 GiB (82%)
Language                                 : English
Default                                  : Yes
Forced                                   : No

Audio #1
ID                                       : 2
Format                                   : MLP FBA 16-ch
Format/Info                              : Meridian Lossless Packing FBA with 16-channel presentation
Commercial name                          : Dolby TrueHD with Dolby Atmos
Codec ID                                 : A_TRUEHD
Duration                                 : 1 h 56 min
Bit rate mode                            : Variable
Bit rate                                 : 4 737 kb/s
Maximum bit rate                         : 7 545 kb/s
Channel(s)                               : 8 channels
Channel layout                           : L R C LFE Ls Rs Lb Rb
Sampling rate                            : 48.0 kHz
Frame rate                               : 1 200.000 FPS (40 SPF)
Compression mode                         : Lossless
Stream size                              : 3.85 GiB (15%)
Language                                 : English
Default                                  : Yes
Forced                                   : No
Number of dynamic objects                : 11
Bed channel count                        : 1 channel
Bed channel configuration                : LFE

Audio #2
ID                                       : 3
Format                                   : AC-3
Format/Info                              : Audio Coding 3
Commercial name                          : Dolby Digital
Codec ID                                 : A_AC3
Duration                                 : 1 h 56 min
Bit rate mode                            : Constant
Bit rate                                 : 640 kb/s
Channel(s)                               : 6 channels
Channel layout                           : L R C LFE Ls Rs
Sampling rate                            : 48.0 kHz
Frame rate                               : 31.250 FPS (1536 SPF)
Compression mode                         : Lossy
Stream size                              : 533 MiB (2%)
Language                                 : English
Service kind                             : Complete Main
Default                                  : No
Forced                                   : No

Text #1
ID                                       : 4
Format                                   : PGS
Codec ID                                 : S_HDMV/PGS
Codec ID/Info                            : Picture based subtitle format used on BDs/HD-DVDs
Duration                                 : 1 h 53 min
Bit rate                                 : 30.1 kb/s
Count of elements                        : 2662
Stream size                              : 24.5 MiB (0%)
Title                                    : SDH
Language                                 : English
Default                                  : Yes
Forced                                   : No

Text #2
ID                                       : 5
Format                                   : PGS
Codec ID                                 : S_HDMV/PGS
Codec ID/Info                            : Picture based subtitle format used on BDs/HD-DVDs
Duration                                 : 1 h 55 min
Bit rate                                 : 23.9 kb/s
Count of elements                        : 2538
Stream size                              : 19.7 MiB (0%)
Language                                 : French
Default                                  : No
Forced                                   : No

Text #3
ID                                       : 6
Format                                   : PGS
Codec ID                                 : S_HDMV/PGS
Codec ID/Info                            : Picture based subtitle format used on BDs/HD-DVDs
Duration                                 : 1 h 56 min
Bit rate                                 : 27.3 kb/s
Count of elements                        : 2494
Stream size                              : 22.7 MiB (0%)
Title                                    : Brazilian Portuguese
Language                                 : Portuguese
Default                                  : No
Forced                                   : No

Text #4
ID                                       : 7
Format                                   : PGS
Codec ID                                 : S_HDMV/PGS
Codec ID/Info                            : Picture based subtitle format used on BDs/HD-DVDs
Duration                                 : 1 h 56 min
Bit rate                                 : 28.2 kb/s
Count of elements                        : 2586
Stream size                              : 23.4 MiB (0%)
Title                                    : Latin American Spanish
Language                                 : Spanish
Default                                  : No
Forced                                   : No

Menu
00:00:00.000                             : en:00:00:00.000
00:15:19.085                             : en:00:15:19.085
00:23:11.682                             : en:00:23:11.682
00:32:09.302                             : en:00:32:09.302
00:40:36.059                             : en:00:40:36.059
00:49:07.570                             : en:00:49:07.570
00:59:23.560                             : en:00:59:23.560
01:08:52.837                             : en:01:08:52.837
01:20:28.115                             : en:01:20:28.115
01:29:47.674                             : en:01:29:47.674
01:43:21.362                             : en:01:43:21.362
01:49:23.432                             : en:01:49:23.432

Readme/Password

Password & My Message