Fast Download Mirrors

The Matrix Resurrections (2021) • Movie | 1080p.Bluray.Atmos.TrueHD.7.1.x264-EVO [14.27 GB]

The Matrix Resurrections Action, Sci-Fi | December 22, 2021 (United States) Summary: Return to a world of two realities: one, everyday life; the other, what lies behind it. To find out if his reality is a construct, to truly know himself, Mr. Anderson will have to choose to ... Read all
Countries: United StatesLanguages: English

Plagued by strange memories, Neo’s life takes an unexpected turn when he finds himself back inside the Matrix.

Mirrors: GDrive [Gadrive, GDToT, Index, Sharer], MultiUp
Format: MKV
Credits: EVO

Download

General
Unique ID                                : 319234507051245179429691179815455480024 (0xF02A54635D18D1EF302D83598998D8D8)
Complete name                            : The.Matrix.Resurrections.2021.1080p.Bluray.Atmos.TrueHD.7.1.x264-EVO.mkv
Format                                   : Matroska
Format version                           : Version 4
File size                                : 14.3 GiB
Duration                                 : 2 h 27 min
Overall bit rate mode                    : Variable
Overall bit rate                         : 13.8 Mb/s
Encoded date                             : UTC 2022-02-19 11:33:56
Writing application                      : mkvmerge v49.0.0 ('Sick Of Losing Soulmates') 64-bit
Writing library                          : libebml v1.4.0 + libmatroska v1.6.1

Video
ID                                       : 3
Format                                   : AVC
Format/Info                              : Advanced Video Codec
Format profile                           : High@L4.1
Format settings                          : CABAC / 4 Ref Frames
Format settings, CABAC                   : Yes
Format settings, Reference frames        : 4 frames
Codec ID                                 : V_MPEG4/ISO/AVC
Duration                                 : 2 h 27 min
Bit rate                                 : 10 000 kb/s
Width                                    : 1 920 pixels
Height                                   : 804 pixels
Display aspect ratio                     : 2.40:1
Frame rate mode                          : Constant
Frame rate                               : 23.976 (24000/1001) FPS
Color space                              : YUV
Chroma subsampling                       : 4:2:0
Bit depth                                : 8 bits
Scan type                                : Progressive
Bits/(Pixel*Frame)                       : 0.270
Stream size                              : 10.3 GiB (72%)
Writing library                          : x264 core 142 r2479 dd79a61
Encoding settings                        : cabac=1 / ref=1 / deblock=1:0:0 / analyse=0x3:0x3 / me=dia / subme=1 / psy=1 / psy_rd=1.00:0.00 / mixed_ref=0 / me_range=16 / chroma_me=1 / trellis=0 / 8x8dct=1 / cqm=0 / deadzone=21,11 / fast_pskip=1 / chroma_qp_offset=0 / threads=24 / lookahead_threads=4 / sliced_threads=0 / nr=0 / decimate=1 / interlaced=0 / bluray_compat=0 / constrained_intra=0 / bframes=3 / b_pyramid=2 / b_adapt=1 / b_bias=0 / direct=1 / weightb=1 / open_gop=0 / weightp=1 / keyint=240 / keyint_min=24 / scenecut=40 / intra_refresh=0 / rc_lookahead=0 / rc=abr / mbtree=0 / bitrate=10000 / ratetol=1.0 / qcomp=0.60 / qpmin=0 / qpmax=69 / qpstep=4 / vbv_maxrate=62500 / vbv_bufsize=78125 / nal_hrd=none / filler=0 / ip_ratio=1.40 / pb_ratio=1.30 / aq=1:1.00
Default                                  : Yes
Forced                                   : No
Color range                              : Limited
Color primaries                          : BT.709
Transfer characteristics                 : BT.709
Matrix coefficients                      : BT.709

Audio #1
ID                                       : 1
Format                                   : MLP FBA 16-ch
Format/Info                              : Meridian Lossless Packing FBA with 16-channel presentation
Commercial name                          : Dolby TrueHD with Dolby Atmos
Codec ID                                 : A_TRUEHD
Duration                                 : 2 h 27 min
Bit rate mode                            : Variable
Bit rate                                 : 3 140 kb/s
Maximum bit rate                         : 5 967 kb/s
Channel(s)                               : 8 channels
Channel layout                           : L R C LFE Ls Rs Lb Rb
Sampling rate                            : 48.0 kHz
Frame rate                               : 1 200.000 FPS (40 SPF)
Compression mode                         : Lossless
Delay relative to video                  : -83 ms
Stream size                              : 3.25 GiB (23%)
Language                                 : English
Default                                  : No
Forced                                   : No
Number of dynamic objects                : 11
Bed channel count                        : 1 channel
Bed channel configuration                : LFE

Audio #2
ID                                       : 4
Format                                   : AC-3
Format/Info                              : Audio Coding 3
Commercial name                          : Dolby Digital
Codec ID                                 : A_AC3
Duration                                 : 2 h 27 min
Bit rate mode                            : Constant
Bit rate                                 : 640 kb/s
Channel(s)                               : 6 channels
Channel layout                           : L R C LFE Ls Rs
Sampling rate                            : 48.0 kHz
Frame rate                               : 31.250 FPS (1536 SPF)
Compression mode                         : Lossy
Delay relative to video                  : -5 ms
Stream size                              : 677 MiB (5%)
Title                                    : Surround
Language                                 : English
Service kind                             : Complete Main
Default                                  : Yes
Forced                                   : No

Text
ID                                       : 2
Format                                   : PGS
Muxing mode                              : zlib
Codec ID                                 : S_HDMV/PGS
Codec ID/Info                            : Picture based subtitle format used on BDs/HD-DVDs
Duration                                 : 2 h 27 min
Bit rate                                 : 32.6 kb/s
Count of elements                        : 4162
Stream size                              : 34.5 MiB (0%)
Language                                 : English
Default                                  : Yes
Forced                                   : No

Menu
00:00:00.000                             : :Chapter 1
00:04:06.204                             : :Chapter 2
00:13:44.907                             : :Chapter 3
00:22:39.483                             : :Chapter 4
00:30:47.762                             : :Chapter 5
00:39:00.755                             : :Chapter 6
00:47:42.609                             : :Chapter 7
00:54:20.924                             : :Chapter 8
01:03:01.319                             : :Chapter 9
01:11:51.682                             : :Chapter 10
01:20:40.419                             : :Chapter 11
01:30:30.383                             : :Chapter 12
01:39:38.806                             : :Chapter 13
01:48:59.991                             : :Chapter 14
01:53:17.999                             : :Chapter 15
02:02:57.745                             : :Chapter 16
02:12:33.570                             : :Chapter 17
02:16:41.026                             : :Chapter 18

Readme/Password

Password & My Message