Fast Download Mirrors

The Matrix Resurrections (2021) • Movie | 1080p.BluRay.REMUX.AVC.Atmos-PiRaTeS [25 GB]

The Matrix Resurrections Action, Sci-Fi | December 22, 2021 (United States) Summary: Return to a world of two realities: one, everyday life; the other, what lies behind it. To find out if his reality is a construct, to truly know himself, Mr. Anderson will have to choose to ... Read all
Countries: United StatesLanguages: English

Plagued by strange memories, Neo’s life takes an unexpected turn when he finds himself back inside the Matrix.

Mirrors: GDrive [Gadrive, GDToT, Index, Sharer], MultiUp
Format: MKV
Credits: PiRaTeS

Download

General
Unique ID                                : 239833843817496319251361795996025812648 (0xB46E51722F1FC650A38C83E340B2F6A8)
Complete name                            : The.Matrix.Resurrections.2021.1080p.BluRay.REMUX.AVC.Atmos-PiRaTeS.mkv
Format                                   : Matroska
Format version                           : Version 2
File size                                : 25.0 GiB
Duration                                 : 2 h 27 min
Overall bit rate mode                    : Variable
Overall bit rate                         : 24.2 Mb/s
Encoded date                             : UTC 2022-02-23 06:46:51
Writing application                      : MakeMKV v1.16.5 linux(x64-release)
Writing library                          : libmakemkv v1.16.5 (1.3.10/1.5.2) x86_64-linux-gnu

Video
ID                                       : 1
ID in the original source medium         : 4113 (0x1011)
Format                                   : AVC
Format/Info                              : Advanced Video Codec
Format profile                           : High@L4.1
Format settings                          : CABAC / 4 Ref Frames
Format settings, CABAC                   : Yes
Format settings, Reference frames        : 4 frames
Codec ID                                 : V_MPEG4/ISO/AVC
Duration                                 : 2 h 27 min
Bit rate mode                            : Variable
Bit rate                                 : 20.8 Mb/s
Maximum bit rate                         : 29.5 Mb/s
Width                                    : 1 920 pixels
Height                                   : 1 080 pixels
Display aspect ratio                     : 16:9
Frame rate mode                          : Constant
Frame rate                               : 23.976 (24000/1001) FPS
Color space                              : YUV
Chroma subsampling                       : 4:2:0
Bit depth                                : 8 bits
Scan type                                : Progressive
Bits/(Pixel*Frame)                       : 0.419
Stream size                              : 21.5 GiB (86%)
Language                                 : English
Default                                  : No
Forced                                   : No
Original source medium                   : Blu-ray

Audio
ID                                       : 2
ID in the original source medium         : 4352 (0x1100)
Format                                   : MLP FBA 16-ch
Format/Info                              : Meridian Lossless Packing FBA with 16-channel presentation
Commercial name                          : Dolby TrueHD with Dolby Atmos
Codec ID                                 : A_TRUEHD
Duration                                 : 2 h 27 min
Bit rate mode                            : Variable
Bit rate                                 : 3 140 kb/s
Maximum bit rate                         : 5 967 kb/s
Channel(s)                               : 8 channels
Channel layout                           : L R C LFE Ls Rs Lb Rb
Sampling rate                            : 48.0 kHz
Frame rate                               : 1 200.000 FPS (40 SPF)
Bit depth                                : 24 bits
Compression mode                         : Lossless
Stream size                              : 3.25 GiB (13%)
Language                                 : English
Default                                  : Yes
Forced                                   : No
Original source medium                   : Blu-ray
Number of dynamic objects                : 11
Bed channel count                        : 1 channel
Bed channel configuration                : LFE

Text #1
ID                                       : 3
ID in the original source medium         : 4608 (0x1200)
Format                                   : PGS
Codec ID                                 : S_HDMV/PGS
Codec ID/Info                            : Picture based subtitle format used on BDs/HD-DVDs
Duration                                 : 2 h 27 min
Bit rate                                 : 32.6 kb/s
Count of elements                        : 4162
Stream size                              : 34.5 MiB (0%)
Language                                 : English
Default                                  : No
Forced                                   : No
Original source medium                   : Blu-ray

Text #2
ID                                       : 5
ID in the original source medium         : 4609 (0x1201)
Format                                   : PGS
Codec ID                                 : S_HDMV/PGS
Codec ID/Info                            : Picture based subtitle format used on BDs/HD-DVDs
Duration                                 : 2 h 26 min
Bit rate                                 : 23.8 kb/s
Count of elements                        : 3290
Stream size                              : 25.0 MiB (0%)
Language                                 : French
Default                                  : No
Forced                                   : No
Original source medium                   : Blu-ray

Text #3
ID                                       : 6
ID in the original source medium         : 4610 (0x1202)
Format                                   : PGS
Codec ID                                 : S_HDMV/PGS
Codec ID/Info                            : Picture based subtitle format used on BDs/HD-DVDs
Duration                                 : 2 h 27 min
Bit rate                                 : 17.9 kb/s
Count of elements                        : 3374
Stream size                              : 18.9 MiB (0%)
Language                                 : Korean
Default                                  : No
Forced                                   : No
Original source medium                   : Blu-ray

Text #4
ID                                       : 7
ID in the original source medium         : 4611 (0x1203)
Format                                   : PGS
Codec ID                                 : S_HDMV/PGS
Codec ID/Info                            : Picture based subtitle format used on BDs/HD-DVDs
Duration                                 : 2 h 26 min
Bit rate                                 : 28.5 kb/s
Count of elements                        : 3356
Stream size                              : 29.9 MiB (0%)
Language                                 : Spanish
Default                                  : No
Forced                                   : No
Original source medium                   : Blu-ray

Text #5
ID                                       : 8
ID in the original source medium         : 4612 (0x1204)
Format                                   : PGS
Codec ID                                 : S_HDMV/PGS
Codec ID/Info                            : Picture based subtitle format used on BDs/HD-DVDs
Duration                                 : 2 h 26 min
Bit rate                                 : 28.1 kb/s
Count of elements                        : 3358
Stream size                              : 29.6 MiB (0%)
Language                                 : Portuguese
Default                                  : No
Forced                                   : No
Original source medium                   : Blu-ray

Text #6
ID                                       : 9
ID in the original source medium         : 4613 (0x1205)
Format                                   : PGS
Codec ID                                 : S_HDMV/PGS
Codec ID/Info                            : Picture based subtitle format used on BDs/HD-DVDs
Duration                                 : 2 h 26 min
Bit rate                                 : 27.4 kb/s
Count of elements                        : 3360
Stream size                              : 28.8 MiB (0%)
Language                                 : Greek
Default                                  : No
Forced                                   : No
Original source medium                   : Blu-ray

Text #7
ID                                       : 10
ID in the original source medium         : 4614 (0x1206)
Format                                   : PGS
Codec ID                                 : S_HDMV/PGS
Codec ID/Info                            : Picture based subtitle format used on BDs/HD-DVDs
Duration                                 : 2 h 27 min
Bit rate                                 : 25.1 kb/s
Count of elements                        : 3108
Stream size                              : 26.5 MiB (0%)
Language                                 : Hungarian
Default                                  : No
Forced                                   : No
Original source medium                   : Blu-ray

Text #8
ID                                       : 11
ID in the original source medium         : 4615 (0x1207)
Format                                   : PGS
Codec ID                                 : S_HDMV/PGS
Codec ID/Info                            : Picture based subtitle format used on BDs/HD-DVDs
Duration                                 : 2 h 27 min
Bit rate                                 : 27.1 kb/s
Count of elements                        : 3360
Stream size                              : 28.5 MiB (0%)
Language                                 : Polish
Default                                  : No
Forced                                   : No
Original source medium                   : Blu-ray

Menu
00:00:00.000                             : en:Chapter 01
00:04:06.079                             : en:Chapter 02
00:13:44.782                             : en:Chapter 03
00:22:39.358                             : en:Chapter 04
00:30:47.637                             : en:Chapter 05
00:39:00.629                             : en:Chapter 06
00:47:42.484                             : en:Chapter 07
00:54:20.799                             : en:Chapter 08
01:03:01.194                             : en:Chapter 09
01:11:51.557                             : en:Chapter 10
01:20:40.293                             : en:Chapter 11
01:30:30.258                             : en:Chapter 12
01:39:38.681                             : en:Chapter 13
01:48:59.866                             : en:Chapter 14
01:53:17.874                             : en:Chapter 15
02:02:57.620                             : en:Chapter 16
02:12:33.445                             : en:Chapter 17
02:16:40.901                             : en:Chapter 18

Readme/Password

Password & My Message