Fast Download Mirrors

The Mitchells vs. the Machines (2021) • Movie | 1080p.BluRay.REMUX.AVC.DTS-HD.MA.5.1-TRiToN [18.8GB]

The Mitchells vs. the Machines (2021)
The Mitchells vs the Machines (2021) 113min | Animation, Adventure, Comedy, Family, Sci-Fi | April 30, 2021 (United States) Summary:
Countries: United States, Canada, Hong KongLanguages: English

A quirky, dysfunctional family’s road trip is upended when they find themselves in the middle of the robot apocalypse and suddenly become humanity’s unlikeliest last hope.

Mirrors: 1fichier, MultiUp, Gdrive[GDTOT, Sharer, GAdrive], Gdrive Index
Format: MKV
Credits: TRiToN

Download

Complete name                  : The.Mitchells.vs.the.Machines.2021.1080p.BluRay.REMUX.AVC.DTS-HD.MA.5.1-TRiToN.mkv
Format                         : Matroska
Format version                 : Version 4
File size                      : 18.8 GiB
Duration                       : 1 h 49 min
Overall bit rate mode          : Variable
Overall bit rate               : 24.6 Mb/s
Movie name                     : The Mitchells vs. the Machines (2021)
Encoded date                   : UTC 2021-12-10 13:57:58
Writing application            : mkvmerge v63.0.0 ('Everything') 64-bit
Writing library                : libebml v1.4.2 + libmatroska v1.6.4
IMDB                           : tt7979580
TMDB                           : movie/501929

Video
ID                             : 1
Format                         : AVC
Format/Info                    : Advanced Video Codec
Format profile                 : High@L4.1
Format settings                : CABAC / 2 Ref Frames
Format settings, CABAC         : Yes
Format settings, Reference fra : 2 frames
Format settings, GOP           : M=1, N=10
Codec ID                       : V_MPEG4/ISO/AVC
Duration                       : 1 h 49 min
Bit rate mode                  : Variable
Bit rate                       : 21.8 Mb/s
Width                          : 1 920 pixels
Height                         : 1 080 pixels
Display aspect ratio           : 16:9
Frame rate mode                : Constant
Frame rate                     : 23.976 (24000/1001) FPS
Color space                    : YUV
Chroma subsampling             : 4:2:0
Bit depth                      : 8 bits
Scan type                      : Progressive
Bits/(Pixel*Frame)             : 0.438
Stream size                    : 16.7 GiB (89%)
Title                          : MPEG-4 AVC Video / 21791 kbps / 1080p / 23.976 fps / 16:9 / High Profile 4.1
Language                       : English
Default                        : Yes
Forced                         : No

Audio #1
ID                             : 2
Format                         : DTS XLL
Format/Info                    : Digital Theater Systems
Commercial name                : DTS-HD Master Audio
Codec ID                       : A_DTS
Duration                       : 1 h 49 min
Bit rate mode                  : Variable
Bit rate                       : 2 207 kb/s
Channel(s)                     : 6 channels
Channel layout                 : C L R Ls Rs LFE
Sampling rate                  : 48.0 kHz
Frame rate                     : 93.750 FPS (512 SPF)
Bit depth                      : 16 bits
Compression mode               : Lossless
Stream size                    : 1.69 GiB (9%)
Title                          : DTS-HD Master Audio / 5.1 / 48 kHz / 2207 kbps / 16-bit
Language                       : English
Default                        : Yes
Forced                         : No

Audio #2
ID                             : 3
Format                         : AC-3
Format/Info                    : Audio Coding 3
Commercial name                : Dolby Digital
Codec ID                       : A_AC3
Duration                       : 1 h 49 min
Bit rate mode                  : Constant
Bit rate                       : 192 kb/s
Channel(s)                     : 2 channels
Channel layout                 : L R
Sampling rate                  : 48.0 kHz
Frame rate                     : 31.250 FPS (1536 SPF)
Bit depth                      : 16 bits
Compression mode               : Lossy
Delay relative to video        : 24 ms
Stream size                    : 151 MiB (1%)
Title                          : Commentary by Director Mike Rianda, Visual Effects Supervisor Mike Lasker, Production/Character Designer Lindsey Olivares, Co-Director/Co-Writer Jeff Rowe, Producer Kurt Albrecht, Head of Animation Alan Hawkins, and Head of Story Guillermo Martinez
Language                       : English
Service kind                   : Complete Main
Default                        : No
Forced                         : No

Text #1
ID                             : 4
Format                         : PGS
Codec ID                       : S_HDMV/PGS
Codec ID/Info                  : Picture based subtitle format used on BDs/HD-DVDs
Duration                       : 1 h 49 min
Bit rate                       : 44.4 kb/s
Count of elements              : 3383
Stream size                    : 34.6 MiB (0%)
Language                       : English
Default                        : No
Forced                         : No

Text #2
ID                             : 5
Format                         : PGS
Codec ID                       : S_HDMV/PGS
Codec ID/Info                  : Picture based subtitle format used on BDs/HD-DVDs
Duration                       : 1 h 48 min
Bit rate                       : 38.2 kb/s
Count of elements              : 2958
Stream size                    : 29.7 MiB (0%)
Title                          : SDH
Language                       : English
Default                        : No
Forced                         : No

Text #3
ID                             : 6
Format                         : PGS
Codec ID                       : S_HDMV/PGS
Codec ID/Info                  : Picture based subtitle format used on BDs/HD-DVDs
Duration                       : 1 h 48 min
Bit rate                       : 33.2 kb/s
Count of elements              : 3133
Stream size                    : 25.9 MiB (0%)
Language                       : French
Default                        : No
Forced                         : No

Text #4
ID                             : 7
Format                         : PGS
Codec ID                       : S_HDMV/PGS
Codec ID/Info                  : Picture based subtitle format used on BDs/HD-DVDs
Duration                       : 1 h 48 min
Bit rate                       : 38.5 kb/s
Count of elements              : 3187
Stream size                    : 30.0 MiB (0%)
Title                          : Brazilian
Language                       : Portuguese
Default                        : No
Forced                         : No

Text #5
ID                             : 8
Format                         : PGS
Codec ID                       : S_HDMV/PGS
Codec ID/Info                  : Picture based subtitle format used on BDs/HD-DVDs
Duration                       : 1 h 48 min
Bit rate                       : 37.6 kb/s
Count of elements              : 3181
Stream size                    : 29.2 MiB (0%)
Title                          : Latin American
Language                       : Spanish
Default                        : No
Forced                         : No

Text #6
ID                             : 9
Format                         : PGS
Codec ID                       : S_HDMV/PGS
Codec ID/Info                  : Picture based subtitle format used on BDs/HD-DVDs
Duration                       : 1 h 49 min
Bit rate                       : 81.6 kb/s
Count of elements              : 4297
Stream size                    : 63.8 MiB (0%)
Title                          : Commentary
Language                       : English
Default                        : No
Forced                         : No

Text #7
ID                             : 10
Format                         : PGS
Codec ID                       : S_HDMV/PGS
Codec ID/Info                  : Picture based subtitle format used on BDs/HD-DVDs
Duration                       : 1 h 49 min
Bit rate                       : 54.3 kb/s
Count of elements              : 3902
Stream size                    : 42.5 MiB (0%)
Title                          : Brazilian Commentary
Language                       : Portuguese
Default                        : No
Forced                         : No

Text #8
ID                             : 11
Format                         : PGS
Codec ID                       : S_HDMV/PGS
Codec ID/Info                  : Picture based subtitle format used on BDs/HD-DVDs
Duration                       : 1 h 49 min
Bit rate                       : 53.2 kb/s
Count of elements              : 3634
Stream size                    : 41.6 MiB (0%)
Title                          : Latin American Commentary
Language                       : Spanish
Default                        : No
Forced                         : No

Menu
00:00:00.000                   : en:Chapter 01
00:06:16.042                   : en:Chapter 02
00:14:18.483                   : en:Chapter 03
00:18:56.385                   : en:Chapter 04
00:24:53.575                   : en:Chapter 05
00:31:55.831                   : en:Chapter 06
00:36:30.271                   : en:Chapter 07
00:45:45.117                   : en:Chapter 08
00:49:55.492                   : en:Chapter 09
00:54:17.004                   : en:Chapter 10
01:02:29.829                   : en:Chapter 11
01:08:49.333                   : en:Chapter 12
01:15:51.505                   : en:Chapter 13
01:25:21.032                   : en:Chapter 14
01:30:32.051                   : en:Chapter 15
01:38:45.294                   : en:Chapter 16

Readme/Password

Password & My Message