Fast Download Mirrors

The Most Unknown (2018) • Movie | 1080p.WEB.x264-DOCiLE [2.1GB]

The Most Unknown (2018) • Movie
The Most Unknown Documentary | August 8, 2018 (Philippines) Summary:
Countries: United StatesLanguages: English, Italian

An epic documentary film that sends nine scientists to extraordinary parts of the world to uncover unexpected answers to some of humanity’s biggest questions. How did life begin? What is time? What is consciousness? How much do we really know? By introducing researchers from diverse backgrounds for the first time, then dropping them into new, immersive field work they previously hadn’t tackled, the film pushes the boundaries of how science storytelling is approached. What emerges is a deeply human trip to the foundations of discovery and a powerful reminder that the unanswered questions are the most crucial ones to pose. Directed by Emmy-nominated and Peabody Award-winning filmmaker Ian Cheney and advised by world-renowned filmmaker Werner Herzog, The Most Unknown is an ambitious look at a side of science never before shown on screen.

Mirrors: MirrorAce, MultiUp, Gdrive[GDTOT, Sharer]
Format: MKV
Credits: DOCiLE

Download

Video
ID : 23
Format : AVC
Format/Info : Advanced Video Codec
Format profile : High@L4
Format settings : CABAC / 4 Ref Frames
Format settings, CABAC : Yes
Format settings, Reference frames : 4 frames
Codec ID : V_MPEG4/ISO/AVC
Duration : 1 h 32 min
Bit rate mode : Variable
Bit rate : 2 632 kb/s
Maximum bit rate : 20.0 Mb/s
Width : 1 920 pixels
Height : 1 080 pixels
Display aspect ratio : 16:9
Frame rate mode : Constant
Frame rate : 23.976 (24000/1001) FPS
Color space : YUV
Chroma subsampling : 4:2:0
Bit depth : 8 bits
Scan type : Progressive
Bits/(Pixel*Frame) : 0.053
Stream size : 1.70 GiB (80%)
Writing library : x264 core 148 r2722 1b0121b
Encoding settings : cabac=1 / ref=4 / deblock=1:0:0 / analyse=0x3:0x111 / me=umh / subme=10 / psy=1 / psy_rd=1.00:0.00 / mixed_ref=1 / me_range=120 / chroma_me=1 / trellis=2 / 8x8dct=1 / cqm=0 / deadzone=21,11 / fast_pskip=1 / chroma_qp_offset=-2 / threads=8 / lookahead_threads=2 / sliced_threads=0 / nr=0 / decimate=1 / interlaced=0 / bluray_compat=0 / stitchable=1 / constrained_intra=0 / bframes=16 / b_pyramid=2 / b_adapt=2 / b_bias=0 / direct=3 / weightb=1 / open_gop=0 / weightp=2 / keyint=240 / keyint_min=121 / scenecut=0 / intra_refresh=0 / rc_lookahead=240 / rc=crf / mbtree=1 / crf=21.0 / qcomp=0.50 / qpmin=6 / qpmax=51 / qpstep=4 / vbv_maxrate=20000 / vbv_bufsize=25000 / crf_max=0.0 / nal_hrd=vbr / filler=0 / ip_ratio=1.40 / aq=1:0.80
Default : Yes
Forced : No

Audio
ID : 24
Format : E-AC-3
Format/Info : Enhanced AC-3
Commercial name : Dolby Digital Plus
Codec ID : A_EAC3
Duration : 1 h 32 min
Bit rate mode : Constant
Bit rate : 640 kb/s
Channel(s) : 6 channels
Channel layout : L R C LFE Ls Rs
Sampling rate : 48.0 kHz
Frame rate : 31.250 FPS (1536 SPF)
Compression mode : Lossy
Stream size : 423 MiB (20%)
Language : English
Service kind : Complete Main
Default : Yes
Forced : No

Text #1
ID : 1
Format : UTF-8
Codec ID : S_TEXT/UTF8
Codec ID/Info : UTF-8 Plain Text
Duration : 1 h 29 min
Bit rate : 192 b/s
Count of elements : 1646
Stream size : 127 KiB (0%)
Language : Arabic
Default : No
Forced : No

Text #2
ID : 2
Format : UTF-8
Codec ID : S_TEXT/UTF8
Codec ID/Info : UTF-8 Plain Text
Duration : 1 h 27 min
Bit rate : 81 b/s
Count of elements : 1386
Stream size : 52.3 KiB (0%)
Language : Danish
Default : No
Forced : No

Text #3
ID : 3
Format : UTF-8
Codec ID : S_TEXT/UTF8
Codec ID/Info : UTF-8 Plain Text
Duration : 1 h 32 min
Bit rate : 92 b/s
Count of elements : 1557
Stream size : 62.3 KiB (0%)
Language : German
Default : No
Forced : No

Text #4
ID : 4
Format : UTF-8
Codec ID : S_TEXT/UTF8
Codec ID/Info : UTF-8 Plain Text
Duration : 1 h 29 min
Bit rate : 130 b/s
Count of elements : 1542
Stream size : 86.0 KiB (0%)
Language : Greek
Default : No
Forced : No

Text #5
ID : 5
Format : UTF-8
Codec ID : S_TEXT/UTF8
Codec ID/Info : UTF-8 Plain Text
Duration : 1 h 26 min
Bit rate : 94 b/s
Count of elements : 1693
Stream size : 59.4 KiB (0%)
Language : English
Default : No
Forced : No

Text #6
ID : 6
Format : UTF-8
Codec ID : S_TEXT/UTF8
Codec ID/Info : UTF-8 Plain Text
Duration : 1 h 26 min
Bit rate : 88 b/s
Count of elements : 1484
Stream size : 55.7 KiB (0%)
Language : Finnish
Default : No
Forced : No

Text #7
ID : 7
Format : UTF-8
Codec ID : S_TEXT/UTF8
Codec ID/Info : UTF-8 Plain Text
Duration : 1 h 26 min
Bit rate : 81 b/s
Count of elements : 1507
Stream size : 51.4 KiB (0%)
Language : French
Default : No
Forced : No

Text #8
ID : 8
Format : UTF-8
Codec ID : S_TEXT/UTF8
Codec ID/Info : UTF-8 Plain Text
Duration : 1 h 26 min
Bit rate : 81 b/s
Count of elements : 1344
Stream size : 51.4 KiB (0%)
Language : Hebrew
Default : No
Forced : No

Text #9
ID : 9
Format : UTF-8
Codec ID : S_TEXT/UTF8
Codec ID/Info : UTF-8 Plain Text
Duration : 1 h 26 min
Bit rate : 79 b/s
Count of elements : 1615
Stream size : 50.4 KiB (0%)
Language : Indonesian
Default : No
Forced : No

Text #10
ID : 10
Format : UTF-8
Codec ID : S_TEXT/UTF8
Codec ID/Info : UTF-8 Plain Text
Duration : 1 h 29 min
Bit rate : 83 b/s
Count of elements : 1646
Stream size : 54.9 KiB (0%)
Language : Italian
Default : No
Forced : No

Text #11
ID : 11
Format : UTF-8
Codec ID : S_TEXT/UTF8
Codec ID/Info : UTF-8 Plain Text
Duration : 1 h 29 min
Bit rate : 28 b/s
Count of elements : 1487
Stream size : 19.0 KiB (0%)
Language : Japanese
Default : No
Forced : No

Text #12
ID : 12
Format : UTF-8
Codec ID : S_TEXT/UTF8
Codec ID/Info : UTF-8 Plain Text
Duration : 1 h 29 min
Bit rate : 63 b/s
Count of elements : 1656
Stream size : 41.9 KiB (0%)
Language : Korean
Default : No
Forced : No

Text #13
ID : 13
Format : UTF-8
Codec ID : S_TEXT/UTF8
Codec ID/Info : UTF-8 Plain Text
Duration : 1 h 26 min
Bit rate : 67 b/s
Count of elements : 1292
Stream size : 42.4 KiB (0%)
Language : Dutch
Default : No
Forced : No

Text #14
ID : 14
Format : UTF-8
Codec ID : S_TEXT/UTF8
Codec ID/Info : UTF-8 Plain Text
Duration : 1 h 26 min
Bit rate : 82 b/s
Count of elements : 991
Stream size : 52.1 KiB (0%)
Language : Norwegian
Default : No
Forced : No

Text #15
ID : 15
Format : UTF-8
Codec ID : S_TEXT/UTF8
Codec ID/Info : UTF-8 Plain Text
Duration : 1 h 27 min
Bit rate : 79 b/s
Count of elements : 1304
Stream size : 51.5 KiB (0%)
Language : Polish
Default : No
Forced : No

Text #16
ID : 16
Format : UTF-8
Codec ID : S_TEXT/UTF8
Codec ID/Info : UTF-8 Plain Text
Duration : 1 h 26 min
Bit rate : 84 b/s
Count of elements : 1345
Stream size : 53.5 KiB (0%)
Language : Portuguese
Default : No
Forced : No

Text #17
ID : 17
Format : UTF-8
Codec ID : S_TEXT/UTF8
Codec ID/Info : UTF-8 Plain Text
Duration : 1 h 26 min
Bit rate : 100 b/s
Count of elements : 1615
Stream size : 63.6 KiB (0%)
Language : rom
Default : No
Forced : No

Text #18
ID : 18
Format : UTF-8
Codec ID : S_TEXT/UTF8
Codec ID/Info : UTF-8 Plain Text
Duration : 1 h 29 min
Bit rate : 104 b/s
Count of elements : 1633
Stream size : 68.5 KiB (0%)
Language : Russian
Default : No
Forced : No

Text #19
ID : 19
Format : UTF-8
Codec ID : S_TEXT/UTF8
Codec ID/Info : UTF-8 Plain Text
Duration : 1 h 29 min
Bit rate : 86 b/s
Count of elements : 1485
Stream size : 56.6 KiB (0%)
Language : Spanish
Default : No
Forced : No

Text #20
ID : 20
Format : UTF-8
Codec ID : S_TEXT/UTF8
Codec ID/Info : UTF-8 Plain Text
Duration : 1 h 29 min
Bit rate : 82 b/s
Count of elements : 1201
Stream size : 54.3 KiB (0%)
Language : Swedish
Default : No
Forced : No

Text #21
ID : 21
Format : UTF-8
Codec ID : S_TEXT/UTF8
Codec ID/Info : UTF-8 Plain Text
Duration : 1 h 27 min
Bit rate : 192 b/s
Count of elements : 1644
Stream size : 123 KiB (0%)
Language : Thai
Default : No
Forced : No

Text #22
ID : 22
Format : UTF-8
Codec ID : S_TEXT/UTF8
Codec ID/Info : UTF-8 Plain Text
Duration : 1 h 29 min
Bit rate : 94 b/s
Count of elements : 1543
Stream size : 62.3 KiB (0%)
Language : Turkish
Default : No
Forced : No

Readme/Password

Password & My Message

Screenshots