Fast Download Mirrors

[Exclusive] The Mummy (1999) • Movie | 2160p.BluRay.REMUX.HEVC.DTS-HD.MA.7.1-THEAMBASSADOR [51.57GB]

The Mummy Action, Adventure, Fantasy | May 7, 1999 (United States) Summary: At an archaeological dig in the ancient city of Hamunaptra, an American serving in the French Foreign Legion accidentally awakens a mummy who begins to wreak havoc as he searches for the rei... Read all
Countries: United States, United Kingdom, MoroccoLanguages: English, Egyptian (Ancient), Arabic, Chinese, Hebrew, Hungarian

Dashing legionnaire Rick O’Connell stumbles upon the hidden ruins of Hamunaptra while in the midst of a battle to claim the area in 1920s Egypt. It has been over three thousand years since former High Priest Imhotep suffered a fate worse than death as a punishment for a forbidden love—along with a curse that guarantees eternal doom upon the world if he is ever awoken.

Mirrors: MultiUp, GDrive Index, GDTOT
Format: MKV
Credits: Ambassadorddl.site (remux done by XBlΛZE)
Note: This is an exclusive remux release that can only be found here! 
BluRay Credits: NIMA4K

Download

General
Unique ID                                : 144439862353279665944669144164740222576 (0x6CAA1B090E5CE0220787416B003DCE70)
Complete name                            : The.Mummy.1999.2160p.BluRay.REMUX.HEVC.DTS-HD.MA.7.1-THEAMBASSADOR.mkv
Format                                   : Matroska
Format version                           : Version 2
File size                                : 51.6 GiB
Duration                                 : 2 h 4 min
Overall bit rate mode                    : Variable
Overall bit rate                         : 59.2 Mb/s
Movie name                               : The Mummy
Encoded date                             : UTC 2021-08-07 06:31:13
Writing application                      : MakeMKV v1.16.4 win(x64-release)
Writing library                          : libmakemkv v1.16.4 (1.3.10/1.5.2) win(x64-release)
Cover                                    : Yes
Attachments                              : cover.jpg

Video
ID                                       : 1
ID in the original source medium         : 4113 (0x1011)
Format                                   : HEVC
Format/Info                              : High Efficiency Video Coding
Format profile                           : Main 10@L5.1@High
HDR format                               : SMPTE ST 2086, HDR10 compatible
Codec ID                                 : V_MPEGH/ISO/HEVC
Duration                                 : 2 h 4 min
Bit rate                                 : 48.4 Mb/s
Width                                    : 3 840 pixels
Height                                   : 2 160 pixels
Display aspect ratio                     : 16:9
Frame rate mode                          : Constant
Frame rate                               : 23.976 (24000/1001) FPS
Color space                              : YUV
Chroma subsampling                       : 4:2:0 (Type 2)
Bit depth                                : 10 bits
Bits/(Pixel*Frame)                       : 0.243
Stream size                              : 42.2 GiB (82%)
Language                                 : English
Default                                  : No
Forced                                   : No
Color range                              : Limited
Color primaries                          : BT.2020
Transfer characteristics                 : PQ
Matrix coefficients                      : BT.2020 non-constant
Mastering display color primaries        : Display P3
Mastering display luminance              : min: 0.0000 cd/m2, max: 1000 cd/m2
Maximum Content Light Level              : 1033 cd/m2
Maximum Frame-Average Light Level        : 345 cd/m2
Original source medium                   : Blu-ray

Audio #1
ID                                       : 2
ID in the original source medium         : 4352 (0x1100)
Format                                   : DTS XLL X
Format/Info                              : Digital Theater Systems
Commercial name                          : DTS-HD Master Audio
Codec ID                                 : A_DTS
Duration                                 : 2 h 4 min
Bit rate mode                            : Variable
Bit rate                                 : 7 482 kb/s
Channel(s)                               : 8 channels
Channel(s)_Original                      : Object Based
ChannelLayout_Original                   : Object Based
Sampling rate                            : 48.0 kHz
Frame rate                               : 93.750 FPS (512 SPF)
Bit depth                                : 24 bits
Stream size                              : 6.52 GiB (13%)
Title                                    : Surround 7.1
Language                                 : English
Default                                  : Yes
Forced                                   : No
Original source medium                   : Blu-ray

Audio #2
ID                                       : 3
ID in the original source medium         : 4352 (0x1100)
Format                                   : DTS
Format/Info                              : Digital Theater Systems
Codec ID                                 : A_DTS
Duration                                 : 2 h 4 min
Bit rate mode                            : Constant
Bit rate                                 : 1 509 kb/s
Channel(s)                               : 6 channels
Channel layout                           : C L R Ls Rs LFE
Sampling rate                            : 48.0 kHz
Frame rate                               : 93.750 FPS (512 SPF)
Bit depth                                : 24 bits
Compression mode                         : Lossy
Stream size                              : 1.32 GiB (3%)
Title                                    : Surround 5.1
Language                                 : English
Default                                  : No
Forced                                   : No
Original source medium                   : Blu-ray

Audio #3
ID                                       : 4
ID in the original source medium         : 4353 (0x1101)
Format                                   : DTS
Format/Info                              : Digital Theater Systems
Codec ID                                 : A_DTS
Duration                                 : 2 h 4 min
Bit rate mode                            : Constant
Bit rate                                 : 255 kb/s
Channel(s)                               : 2 channels
Channel layout                           : L R
Sampling rate                            : 48.0 kHz
Frame rate                               : 93.750 FPS (512 SPF)
Bit depth                                : 24 bits
Compression mode                         : Lossy
Stream size                              : 228 MiB (0%)
Title                                    : Stereo
Language                                 : English
Default                                  : No
Forced                                   : No
Original source medium                   : Blu-ray

Audio #4
ID                                       : 5
ID in the original source medium         : 4356 (0x1104)
Format                                   : AC-3
Format/Info                              : Audio Coding 3
Commercial name                          : Dolby Digital
Format settings                          : Dolby Surround
Codec ID                                 : A_AC3
Duration                                 : 2 h 4 min
Bit rate mode                            : Constant
Bit rate                                 : 192 kb/s
Channel(s)                               : 2 channels
Channel layout                           : L R
Sampling rate                            : 48.0 kHz
Frame rate                               : 31.250 FPS (1536 SPF)
Compression mode                         : Lossy
Stream size                              : 171 MiB (0%)
Title                                    : Stereo
Language                                 : English
Service kind                             : Complete Main
Default                                  : No
Forced                                   : No
Original source medium                   : Blu-ray

Audio #5
ID                                       : 6
ID in the original source medium         : 4357 (0x1105)
Format                                   : AC-3
Format/Info                              : Audio Coding 3
Commercial name                          : Dolby Digital
Format settings                          : Dolby Surround
Codec ID                                 : A_AC3
Duration                                 : 2 h 4 min
Bit rate mode                            : Constant
Bit rate                                 : 192 kb/s
Channel(s)                               : 2 channels
Channel layout                           : L R
Sampling rate                            : 48.0 kHz
Frame rate                               : 31.250 FPS (1536 SPF)
Compression mode                         : Lossy
Stream size                              : 171 MiB (0%)
Title                                    : Stereo
Language                                 : English
Service kind                             : Complete Main
Default                                  : No
Forced                                   : No
Original source medium                   : Blu-ray

Audio #6
ID                                       : 7
ID in the original source medium         : 4358 (0x1106)
Format                                   : AC-3
Format/Info                              : Audio Coding 3
Commercial name                          : Dolby Digital
Format settings                          : Dolby Surround
Codec ID                                 : A_AC3
Duration                                 : 2 h 4 min
Bit rate mode                            : Constant
Bit rate                                 : 192 kb/s
Channel(s)                               : 2 channels
Channel layout                           : L R
Sampling rate                            : 48.0 kHz
Frame rate                               : 31.250 FPS (1536 SPF)
Compression mode                         : Lossy
Stream size                              : 171 MiB (0%)
Title                                    : Stereo
Language                                 : English
Service kind                             : Complete Main
Default                                  : No
Forced                                   : No
Original source medium                   : Blu-ray

Text #1
ID                                       : 8
ID in the original source medium         : 4768 (0x12A0)
Format                                   : PGS
Codec ID                                 : S_HDMV/PGS
Codec ID/Info                            : Picture based subtitle format used on BDs/HD-DVDs
Duration                                 : 1 h 55 min
Bit rate                                 : 33.0 kb/s
Count of elements                        : 2724
Stream size                              : 27.4 MiB (0%)
Language                                 : English
Default                                  : No
Forced                                   : No
Original source medium                   : Blu-ray

Text #2
ID                                       : 10
ID in the original source medium         : 4769 (0x12A1)
Format                                   : PGS
Codec ID                                 : S_HDMV/PGS
Codec ID/Info                            : Picture based subtitle format used on BDs/HD-DVDs
Duration                                 : 1 h 55 min
Bit rate                                 : 17.2 kb/s
Count of elements                        : 2093
Stream size                              : 14.1 MiB (0%)
Language                                 : Japanese
Default                                  : No
Forced                                   : No
Original source medium                   : Blu-ray

Text #3
ID                                       : 12
ID in the original source medium         : 4770 (0x12A2)
Format                                   : PGS
Codec ID                                 : S_HDMV/PGS
Codec ID/Info                            : Picture based subtitle format used on BDs/HD-DVDs
Duration                                 : 1 h 55 min
Bit rate                                 : 26.8 kb/s
Count of elements                        : 2158
Stream size                              : 22.1 MiB (0%)
Language                                 : German
Default                                  : No
Forced                                   : No
Original source medium                   : Blu-ray

Text #4
ID                                       : 14
ID in the original source medium         : 4771 (0x12A3)
Format                                   : PGS
Codec ID                                 : S_HDMV/PGS
Codec ID/Info                            : Picture based subtitle format used on BDs/HD-DVDs
Duration                                 : 1 h 55 min
Bit rate                                 : 24.7 kb/s
Count of elements                        : 2158
Stream size                              : 20.4 MiB (0%)
Language                                 : Italian
Default                                  : No
Forced                                   : No
Original source medium                   : Blu-ray

Text #5
ID                                       : 16
ID in the original source medium         : 4772 (0x12A4)
Format                                   : PGS
Codec ID                                 : S_HDMV/PGS
Codec ID/Info                            : Picture based subtitle format used on BDs/HD-DVDs
Duration                                 : 1 h 55 min
Bit rate                                 : 25.8 kb/s
Count of elements                        : 2158
Stream size                              : 21.3 MiB (0%)
Language                                 : Spanish
Default                                  : No
Forced                                   : No
Original source medium                   : Blu-ray

Text #6
ID                                       : 18
ID in the original source medium         : 4773 (0x12A5)
Format                                   : PGS
Codec ID                                 : S_HDMV/PGS
Codec ID/Info                            : Picture based subtitle format used on BDs/HD-DVDs
Duration                                 : 1 h 55 min
Bit rate                                 : 24.8 kb/s
Count of elements                        : 2156
Stream size                              : 20.4 MiB (0%)
Language                                 : Turkish
Default                                  : No
Forced                                   : No
Original source medium                   : Blu-ray

Text #7
ID                                       : 20
ID in the original source medium         : 4774 (0x12A6)
Format                                   : PGS
Codec ID                                 : S_HDMV/PGS
Codec ID/Info                            : Picture based subtitle format used on BDs/HD-DVDs
Duration                                 : 1 h 55 min
Bit rate                                 : 19.9 kb/s
Count of elements                        : 2128
Stream size                              : 16.4 MiB (0%)
Language                                 : Chinese
Default                                  : No
Forced                                   : No
Original source medium                   : Blu-ray

Text #8
ID                                       : 22
ID in the original source medium         : 4775 (0x12A7)
Format                                   : PGS
Codec ID                                 : S_HDMV/PGS
Codec ID/Info                            : Picture based subtitle format used on BDs/HD-DVDs
Duration                                 : 1 h 48 min
Bit rate                                 : 778 b/s
Count of elements                        : 82
Stream size                              : 616 KiB (0%)
Language                                 : English
Default                                  : No
Forced                                   : No
Original source medium                   : Blu-ray

Text #9
ID                                       : 24
ID in the original source medium         : 4776 (0x12A8)
Format                                   : PGS
Codec ID                                 : S_HDMV/PGS
Codec ID/Info                            : Picture based subtitle format used on BDs/HD-DVDs
Duration                                 : 1 h 48 min
Bit rate                                 : 836 b/s
Count of elements                        : 100
Stream size                              : 662 KiB (0%)
Language                                 : Japanese
Default                                  : No
Forced                                   : No
Original source medium                   : Blu-ray

Text #10
ID                                       : 26
ID in the original source medium         : 4777 (0x12A9)
Format                                   : PGS
Codec ID                                 : S_HDMV/PGS
Codec ID/Info                            : Picture based subtitle format used on BDs/HD-DVDs
Duration                                 : 1 h 48 min
Bit rate                                 : 939 b/s
Count of elements                        : 90
Stream size                              : 744 KiB (0%)
Language                                 : German
Default                                  : No
Forced                                   : No
Original source medium                   : Blu-ray

Text #11
ID                                       : 28
ID in the original source medium         : 4778 (0x12AA)
Format                                   : PGS
Codec ID                                 : S_HDMV/PGS
Codec ID/Info                            : Picture based subtitle format used on BDs/HD-DVDs
Duration                                 : 1 h 48 min
Bit rate                                 : 800 b/s
Count of elements                        : 90
Stream size                              : 634 KiB (0%)
Language                                 : Italian
Default                                  : No
Forced                                   : No
Original source medium                   : Blu-ray

Text #12
ID                                       : 30
ID in the original source medium         : 4779 (0x12AB)
Format                                   : PGS
Codec ID                                 : S_HDMV/PGS
Codec ID/Info                            : Picture based subtitle format used on BDs/HD-DVDs
Duration                                 : 1 h 48 min
Bit rate                                 : 875 b/s
Count of elements                        : 90
Stream size                              : 693 KiB (0%)
Language                                 : Spanish
Default                                  : No
Forced                                   : No
Original source medium                   : Blu-ray

Text #13
ID                                       : 32
ID in the original source medium         : 4780 (0x12AC)
Format                                   : PGS
Codec ID                                 : S_HDMV/PGS
Codec ID/Info                            : Picture based subtitle format used on BDs/HD-DVDs
Duration                                 : 1 h 56 min
Bit rate                                 : 70.7 kb/s
Count of elements                        : 3778
Stream size                              : 59.1 MiB (0%)
Language                                 : English
Default                                  : No
Forced                                   : No
Original source medium                   : Blu-ray

Text #14
ID                                       : 34
ID in the original source medium         : 4781 (0x12AD)
Format                                   : PGS
Codec ID                                 : S_HDMV/PGS
Codec ID/Info                            : Picture based subtitle format used on BDs/HD-DVDs
Duration                                 : 1 h 56 min
Bit rate                                 : 38.0 kb/s
Count of elements                        : 2679
Stream size                              : 31.7 MiB (0%)
Language                                 : Japanese
Default                                  : No
Forced                                   : No
Original source medium                   : Blu-ray

Text #15
ID                                       : 36
ID in the original source medium         : 4782 (0x12AE)
Format                                   : PGS
Codec ID                                 : S_HDMV/PGS
Codec ID/Info                            : Picture based subtitle format used on BDs/HD-DVDs
Duration                                 : 1 h 56 min
Bit rate                                 : 72.9 kb/s
Count of elements                        : 3778
Stream size                              : 60.9 MiB (0%)
Language                                 : German
Default                                  : No
Forced                                   : No
Original source medium                   : Blu-ray

Text #16
ID                                       : 38
ID in the original source medium         : 4783 (0x12AF)
Format                                   : PGS
Codec ID                                 : S_HDMV/PGS
Codec ID/Info                            : Picture based subtitle format used on BDs/HD-DVDs
Duration                                 : 1 h 56 min
Bit rate                                 : 62.0 kb/s
Count of elements                        : 3778
Stream size                              : 51.8 MiB (0%)
Language                                 : Italian
Default                                  : No
Forced                                   : No
Original source medium                   : Blu-ray

Text #17
ID                                       : 40
ID in the original source medium         : 4784 (0x12B0)
Format                                   : PGS
Codec ID                                 : S_HDMV/PGS
Codec ID/Info                            : Picture based subtitle format used on BDs/HD-DVDs
Duration                                 : 1 h 56 min
Bit rate                                 : 63.7 kb/s
Count of elements                        : 3778
Stream size                              : 53.2 MiB (0%)
Language                                 : Spanish
Default                                  : No
Forced                                   : No
Original source medium                   : Blu-ray

Text #18
ID                                       : 42
ID in the original source medium         : 4785 (0x12B1)
Format                                   : PGS
Codec ID                                 : S_HDMV/PGS
Codec ID/Info                            : Picture based subtitle format used on BDs/HD-DVDs
Duration                                 : 1 h 56 min
Bit rate                                 : 49.9 kb/s
Count of elements                        : 3619
Stream size                              : 41.7 MiB (0%)
Language                                 : English
Default                                  : No
Forced                                   : No
Original source medium                   : Blu-ray

Text #19
ID                                       : 44
ID in the original source medium         : 4786 (0x12B2)
Format                                   : PGS
Codec ID                                 : S_HDMV/PGS
Codec ID/Info                            : Picture based subtitle format used on BDs/HD-DVDs
Duration                                 : 1 h 56 min
Bit rate                                 : 18.3 kb/s
Count of elements                        : 1586
Stream size                              : 15.2 MiB (0%)
Language                                 : Japanese
Default                                  : No
Forced                                   : No
Original source medium                   : Blu-ray

Text #20
ID                                       : 46
ID in the original source medium         : 4787 (0x12B3)
Format                                   : PGS
Codec ID                                 : S_HDMV/PGS
Codec ID/Info                            : Picture based subtitle format used on BDs/HD-DVDs
Duration                                 : 1 h 56 min
Bit rate                                 : 48.9 kb/s
Count of elements                        : 3619
Stream size                              : 40.9 MiB (0%)
Language                                 : German
Default                                  : No
Forced                                   : No
Original source medium                   : Blu-ray

Text #21
ID                                       : 48
ID in the original source medium         : 4788 (0x12B4)
Format                                   : PGS
Codec ID                                 : S_HDMV/PGS
Codec ID/Info                            : Picture based subtitle format used on BDs/HD-DVDs
Duration                                 : 1 h 56 min
Bit rate                                 : 44.1 kb/s
Count of elements                        : 3619
Stream size                              : 36.9 MiB (0%)
Language                                 : Italian
Default                                  : No
Forced                                   : No
Original source medium                   : Blu-ray

Text #22
ID                                       : 50
ID in the original source medium         : 4789 (0x12B5)
Format                                   : PGS
Codec ID                                 : S_HDMV/PGS
Codec ID/Info                            : Picture based subtitle format used on BDs/HD-DVDs
Duration                                 : 1 h 56 min
Bit rate                                 : 46.1 kb/s
Count of elements                        : 3619
Stream size                              : 38.5 MiB (0%)
Language                                 : Spanish
Default                                  : No
Forced                                   : No
Original source medium                   : Blu-ray

Text #23
ID                                       : 52
ID in the original source medium         : 4790 (0x12B6)
Format                                   : PGS
Codec ID                                 : S_HDMV/PGS
Codec ID/Info                            : Picture based subtitle format used on BDs/HD-DVDs
Duration                                 : 1 h 56 min
Bit rate                                 : 69.2 kb/s
Count of elements                        : 4024
Stream size                              : 57.7 MiB (0%)
Language                                 : English
Default                                  : No
Forced                                   : No
Original source medium                   : Blu-ray

Text #24
ID                                       : 54
ID in the original source medium         : 4791 (0x12B7)
Format                                   : PGS
Codec ID                                 : S_HDMV/PGS
Codec ID/Info                            : Picture based subtitle format used on BDs/HD-DVDs
Duration                                 : 1 h 56 min
Bit rate                                 : 36.5 kb/s
Count of elements                        : 2597
Stream size                              : 30.5 MiB (0%)
Language                                 : Japanese
Default                                  : No
Forced                                   : No
Original source medium                   : Blu-ray

Text #25
ID                                       : 56
ID in the original source medium         : 4792 (0x12B8)
Format                                   : PGS
Codec ID                                 : S_HDMV/PGS
Codec ID/Info                            : Picture based subtitle format used on BDs/HD-DVDs
Duration                                 : 2 h 4 min
Bit rate                                 : 63.5 kb/s
Count of elements                        : 4062
Stream size                              : 56.5 MiB (0%)
Language                                 : German
Default                                  : No
Forced                                   : No
Original source medium                   : Blu-ray

Text #26
ID                                       : 58
ID in the original source medium         : 4793 (0x12B9)
Format                                   : PGS
Codec ID                                 : S_HDMV/PGS
Codec ID/Info                            : Picture based subtitle format used on BDs/HD-DVDs
Duration                                 : 2 h 4 min
Bit rate                                 : 52.6 kb/s
Count of elements                        : 3892
Stream size                              : 46.8 MiB (0%)
Language                                 : Italian
Default                                  : No
Forced                                   : No
Original source medium                   : Blu-ray

Text #27
ID                                       : 60
ID in the original source medium         : 4794 (0x12BA)
Format                                   : PGS
Codec ID                                 : S_HDMV/PGS
Codec ID/Info                            : Picture based subtitle format used on BDs/HD-DVDs
Duration                                 : 2 h 4 min
Bit rate                                 : 59.8 kb/s
Count of elements                        : 4028
Stream size                              : 53.2 MiB (0%)
Language                                 : Spanish
Default                                  : No
Forced                                   : No
Original source medium                   : Blu-ray

Menu
00:00:00.000                             : en:Chapter 01
00:07:10.721                             : en:Chapter 02
00:12:19.363                             : en:Chapter 03
00:23:19.940                             : en:Chapter 04
00:29:02.949                             : en:Chapter 05
00:36:46.120                             : en:Chapter 06
00:43:38.532                             : en:Chapter 07
00:49:06.610                             : en:Chapter 08
00:53:33.543                             : en:Chapter 09
00:57:29.404                             : en:Chapter 10
01:11:13.352                             : en:Chapter 11
01:18:48.306                             : en:Chapter 12
01:27:29.410                             : en:Chapter 13
01:30:03.731                             : en:Chapter 14
01:36:32.787                             : en:Chapter 15
01:43:58.023                             : en:Chapter 16
01:49:44.661                             : en:Chapter 17
01:56:51.504                             : en:Chapter 18
NFO
 _____ _   _  _____  ___  ___  _________  ___   _____ _____  ___ ______ ___________ 
|_   _| | | ||  ___|/ _ \ |  \/  || ___ \/ _ \ /  ___/  ___|/ _ \|  _  \  _  | ___ \
  | | | |_| || |__ / /_\ \| .  . || |_/ / /_\ \\ `--.\ `--./ /_\ \ | | | | | | |_/ /
  | | |  _  ||  __||  _  || |\/| || ___ \  _  | `--. \`--. \  _  | | | | | | |    / 
  | | | | | || |___| | | || |  | || |_/ / | | |/\__/ /\__/ / | | | |/ /\ \_/ / |\ \ 
  \_/ \_| |_/\____/\_| |_/\_|  |_/\____/\_| |_/\____/\____/\_| |_/___/  \___/\_| \_|Proudly Presents...

This is an ambassadorddl.site Internal Release

The.Mummy.1999.2160p.BluRay.REMUX.HEVC.DTS-HD.MA.7.1-THEAMBASSADOR.mkv

  _____                      __  ____     ___   
 / ___/__ ___  ___ _______ _/ / /  _/__  / _/__ 
/ (_ / -_) _ \/ -_) __/ _ `/ / _/ // _ \/ _/ _ \
\___/\__/_//_/\__/_/  \_,_/_/ /___/_//_/_/ \___/
                                                
Encoder/Remuxer: XBlΛZE

Original Title-: The Mummy

Size-----------: 51.57GB

Runtime--------: 2h 4m

IMDb-----------: https://www.imdb.com/title/tt0120616/

BluRay Credits-: NIMA4K

   __  ___       ___        ____     ___   
  /  |/  /__ ___/ (_)__ _  /  _/__  / _/__ 
 / /|_/ / -_) _  / / _ `/ _/ // _ \/ _/ _ \
/_/  /_/\__/\_,_/_/\_,_/ /___/_//_/_/ \___/
                                           

Bit rate-------: 48.4 Mb/s

Resolution-----: 3840x2160 @ 23.976 fps

Audio----------: DTS-HD Master Audio

Video----------: MPEG-H HEVC Video

   _  __     __        
  / |/ /__  / /____ ___
 /    / _ \/ __/ -_|_-<
/_/|_/\___/\__/\__/___/

Please do not alter our releases when uploading them elsewhere, keep the NFO intact and file names the same.

If you enjoyed this release, it only takes a second to show your appreciation and say thank you.

Readme/Password

Password & My Message

Screenshots