Fast Download Mirrors

The Mysterious Benedict Society (2021-) • TVSeries

The Mysterious Benedict Society (2021-) • TVSeries
The Mysterious Benedict Society (2021) Adventure, Comedy, Drama, Family, Mystery | June 25, 2021 (United States) Summary: A group of gifted orphans are recruited by an eccentric, benefactor to go on a secret mission.
Countries: United StatesLanguages: English

A group of gifted orphans are recruited by an eccentric, benefactor to go on a secret mission.

Mirrors: Gdrive Index
Format: MKV
1080p.WEB.H264-EXPLOIT

Download

[Single Folder][17.6GB][S01]
GDrive[Password Protected]
https://official2.the-ambassador1.workers.dev/0:/The.Mysterious.Benedict.Society/

Password & My Message


MediaInfo
ideo
ID : 1
Format : AVC
Format/Info : Advanced Video Codec
Format profile : High@L4
Format settings : CABAC / 4 Ref Frames
Format settings, CABAC : Yes
Format settings, Reference frames : 4 frames
Codec ID : V_MPEG4/ISO/AVC
Duration : 51 min 36 s
Bit rate mode : Variable
Bit rate : 5 584 kb/s
Maximum bit rate : 12.7 Mb/s
Width : 1 920 pixels
Height : 1 080 pixels
Display aspect ratio : 16:9
Frame rate mode : Constant
Frame rate : 23.976 (24000/1001) FPS
Color space : YUV
Chroma subsampling : 4:2:0
Bit depth : 8 bits
Scan type : Progressive
Bits/(Pixel*Frame) : 0.112
Stream size : 2.01 GiB (88%)
Default : Yes
Forced : No
Color range : Limited
Color primaries : BT.709
Transfer characteristics : BT.709
Matrix coefficients : BT.709

Audio
ID : 2
Format : E-AC-3 JOC
Format/Info : Enhanced AC-3 with Joint Object Coding
Commercial name : Dolby Digital Plus with Dolby Atmos
Codec ID : A_EAC3
Duration : 51 min 36 s
Bit rate mode : Constant
Bit rate : 768 kb/s
Channel(s) : 6 channels
Channel layout : L R C LFE Ls Rs
Sampling rate : 48.0 kHz
Frame rate : 31.250 FPS (1536 SPF)
Compression mode : Lossy
Stream size : 284 MiB (12%)
Title : English
Language : English
Service kind : Complete Main
Default : No
Forced : No
Complexity index : 16
Number of dynamic objects : 15
Bed channel count : 1 channel
Bed channel configuration : LFE

Text #1
ID : 3
Format : UTF-8
Codec ID : S_TEXT/UTF8
Codec ID/Info : UTF-8 Plain Text
Duration : 50 min 51 s
Bit rate : 61 b/s
Count of elements : 773
Stream size : 23.0 KiB (0%)
Title : Danish
Language : Danish
Default : No
Forced : No

Text #2
ID : 4
Format : UTF-8
Codec ID : S_TEXT/UTF8
Codec ID/Info : UTF-8 Plain Text
Duration : 51 min 33 s
Bit rate : 62 b/s
Count of elements : 774
Stream size : 23.6 KiB (0%)
Title : Dutch
Language : Dutch
Default : No
Forced : No

Text #3
ID : 5
Format : UTF-8
Codec ID : S_TEXT/UTF8
Codec ID/Info : UTF-8 Plain Text
Duration : 49 min 56 s
Bit rate : 71 b/s
Count of elements : 833
Stream size : 26.3 KiB (0%)
Title : English SDH
Language : English
Default : No
Forced : No

Text #4
ID : 6
Format : UTF-8
Codec ID : S_TEXT/UTF8
Codec ID/Info : UTF-8 Plain Text
Duration : 49 min 49 s
Bit rate : 67 b/s
Count of elements : 759
Stream size : 24.8 KiB (0%)
Title : English
Language : English
Default : No
Forced : No

Text #5
ID : 7
Format : UTF-8
Codec ID : S_TEXT/UTF8
Codec ID/Info : UTF-8 Plain Text
Duration : 50 min 51 s
Bit rate : 63 b/s
Count of elements : 778
Stream size : 23.5 KiB (0%)
Title : Finnish
Language : Finnish
Default : No
Forced : No

Text #6
ID : 8
Format : UTF-8
Codec ID : S_TEXT/UTF8
Codec ID/Info : UTF-8 Plain Text
Duration : 50 min 51 s
Bit rate : 65 b/s
Count of elements : 778
Stream size : 24.3 KiB (0%)
Title : French
Language : French
Default : No
Forced : No

Text #7
ID : 9
Format : UTF-8
Codec ID : S_TEXT/UTF8
Codec ID/Info : UTF-8 Plain Text
Duration : 51 min 30 s
Bit rate : 65 b/s
Count of elements : 777
Stream size : 24.9 KiB (0%)
Title : German
Language : German
Default : No
Forced : No

Text #8
ID : 10
Format : UTF-8
Codec ID : S_TEXT/UTF8
Codec ID/Info : UTF-8 Plain Text
Duration : 50 min 51 s
Bit rate : 62 b/s
Count of elements : 777
Stream size : 23.3 KiB (0%)
Title : Italian
Language : Italian
Default : No
Forced : No

Text #9
ID : 11
Format : UTF-8
Codec ID : S_TEXT/UTF8
Codec ID/Info : UTF-8 Plain Text
Duration : 49 min 56 s
Bit rate : 59 b/s
Count of elements : 736
Stream size : 21.8 KiB (0%)
Title : Japanese
Language : Japanese
Default : No
Forced : No

Text #10
ID : 12
Format : UTF-8
Codec ID : S_TEXT/UTF8
Codec ID/Info : UTF-8 Plain Text
Duration : 50 min 51 s
Bit rate : 59 b/s
Count of elements : 775
Stream size : 22.3 KiB (0%)
Title : Norwegian
Language : Norwegian
Default : No
Forced : No

Text #11
ID : 13
Format : UTF-8
Codec ID : S_TEXT/UTF8
Codec ID/Info : UTF-8 Plain Text
Duration : 51 min 30 s
Bit rate : 58 b/s
Count of elements : 685
Stream size : 22.2 KiB (0%)
Title : Polish
Language : Polish
Default : No
Forced : No

Text #12
ID : 14
Format : UTF-8
Codec ID : S_TEXT/UTF8
Codec ID/Info : UTF-8 Plain Text
Duration : 50 min 51 s
Bit rate : 61 b/s
Count of elements : 765
Stream size : 22.9 KiB (0%)
Title : Brazilian Portuguese
Language : Portuguese
Default : No
Forced : No

Text #13
ID : 15
Format : UTF-8
Codec ID : S_TEXT/UTF8
Codec ID/Info : UTF-8 Plain Text
Duration : 51 min 33 s
Bit rate : 64 b/s
Count of elements : 777
Stream size : 24.2 KiB (0%)
Title : Portuguese
Language : Portuguese
Default : No
Forced : No

Text #14
ID : 16
Format : UTF-8
Codec ID : S_TEXT/UTF8
Codec ID/Info : UTF-8 Plain Text
Duration : 50 min 51 s
Bit rate : 59 b/s
Count of elements : 782
Stream size : 22.1 KiB (0%)
Title : European Spanish
Language : Spanish
Default : No
Forced : No

Text #15
ID : 17
Format : UTF-8
Codec ID : S_TEXT/UTF8
Codec ID/Info : UTF-8 Plain Text
Duration : 51 min 32 s
Bit rate : 63 b/s
Count of elements : 781
Stream size : 23.9 KiB (0%)
Title : Spanish
Language : Spanish
Default : No
Forced : No

Text #16
ID : 18
Format : UTF-8
Codec ID : S_TEXT/UTF8
Codec ID/Info : UTF-8 Plain Text
Duration : 51 min 33 s
Bit rate : 57 b/s
Count of elements : 778
Stream size : 21.9 KiB (0%)
Title : Swedish
Language : Swedish
Default : No
Forced : No

Text #17
ID : 19
Format : UTF-8
Codec ID : S_TEXT/UTF8
Codec ID/Info : UTF-8 Plain Text
Duration : 50 min 51 s
Bit rate : 54 b/s
Count of elements : 779
Stream size : 20.4 KiB (0%)
Title : Mandarin (Guoyu)
Language : Chinese
Default : No
Forced : No
Screenshots