Fast Download Mirrors

The Protege (Original title: The Protégé) (2021) • Movie | 2160p.UHD.BluRay.REMUX.DV.HDR.HEVC.Atmos-TRiToN

The Protégé (2021) • Movie
The Protege 109min | Action, Crime, Thriller | August 20, 2021 (United States) Summary: Rescued as a child by the legendary assassin Moody, Anna is the world's most skilled contract killer. However, when Moody is brutally killed, she vows revenge for the man who taught her ever... Read all
Countries: United States, United KingdomLanguages: English

Rescued as a child by the legendary assassin Moody (Samuel L. Jackson) and trained in the family business, Anna (Maggie Q) is the world’s most skilled contract killer. But when Moody – the man who was like a father to her and taught her everything she needs to know about trust and survival – is brutally killed, Anna vows revenge. As she becomes entangled with an enigmatic killer (Michael Keaton) whose attraction to her goes way beyond cat and mouse, their confrontation turns deadly and the loose ends of a life spent killing will weave themselves even tighter.

Mirrors: 1fichier, GDrive Index, Gdrive[GDTOT, Sharer]
Format: MKV
Credits: TRiToN

Download

Complete name : The.Protege.2021.2160p.UHD.BluRay.REMUX.DV.HDR.HEVC.Atmos-TRiToN.mkv
Format : Matroska
Format version : Version 4
File size : 64.0 GiB
Duration : 1 h 48 min
Overall bit rate mode : Variable
Overall bit rate : 84.2 Mb/s
Movie name : The Protégé (2021)
Encoded date : UTC 2021-10-15 03:07:51
Writing application : mkvmerge v53.0.0 ('Fool's Gold') 64-bit
Writing library : libebml v1.4.1 + libmatroska v1.6.2
IMDB : tt6079772
TMDB : movie/645788

Video
ID : 1
ID in the original source medium : 4113 (0x1011)
Format : HEVC
Format/Info : High Efficiency Video Coding
Format profile : Main 10@L5.1@High
HDR format : Dolby Vision, Version 1.0, dvhe.07.06, BL+EL+RPU, Blu-ray compatible / SMPTE ST 2086, HDR10 compatible
Codec ID : V_MPEGH/ISO/HEVC
Duration : 1 h 48 min
Bit rate : 79.0 Mb/s
Width : 3 840 pixels
Height : 2 160 pixels
Display aspect ratio : 16:9
Frame rate mode : Constant
Frame rate : 23.976 (24000/1001) FPS
Color space : YUV
Chroma subsampling : 4:2:0 (Type 2)
Bit depth : 10 bits
Bits/(Pixel*Frame) : 0.397
Stream size : 60.1 GiB (94%)
Title : MPEG-H HEVC Video / 7851 + 71099 kbps / 2160p / 23.976 fps / 16:9 / Main 10 @ Level 5.1 @ High / 10 bits / Dolby Vision + HDR10 / BT.2020
Language : English
Default : Yes
Forced : No
Color range : Limited
Color primaries : BT.2020
Transfer characteristics : PQ
Matrix coefficients : BT.2020 non-constant
Mastering display color primaries : Display P3
Mastering display luminance : min: 0.0001 cd/m2, max: 1000 cd/m2
Maximum Content Light Level : 1000 cd/m2
Maximum Frame-Average Light Level : 923 cd/m2
Original source medium : Blu-ray

Audio #1
ID : 2
Format : MLP FBA 16-ch
Format/Info : Meridian Lossless Packing FBA with 16-channel presentation
Commercial name : Dolby TrueHD with Dolby Atmos
Codec ID : A_TRUEHD
Duration : 1 h 48 min
Bit rate mode : Variable
Bit rate : 4 232 kb/s
Maximum bit rate : 8 016 kb/s
Channel(s) : 8 channels
Channel layout : L R C LFE Ls Rs Lb Rb
Sampling rate : 48.0 kHz
Frame rate : 1 200.000 FPS (40 SPF)
Compression mode : Lossless
Stream size : 3.22 GiB (5%)
Title : Dolby TrueHD/Atmos Audio / 7.1 / 48 kHz / 4231 kbps / 24-bit
Language : English
Default : Yes
Forced : No
Number of dynamic objects : 11
Bed channel count : 1 channel
Bed channel configuration : LFE

Audio #2
ID : 3
Format : AC-3
Format/Info : Audio Coding 3
Commercial name : Dolby Digital
Format settings : Dolby Surround EX
Codec ID : A_AC3
Duration : 1 h 48 min
Bit rate mode : Constant
Bit rate : 640 kb/s
Channel(s) : 6 channels
Channel layout : L R C LFE Ls Rs
Sampling rate : 48.0 kHz
Frame rate : 31.250 FPS (1536 SPF)
Compression mode : Lossy
Stream size : 498 MiB (1%)
Title : Compatibility Track / Dolby Digital EX Audio / 5.1-EX / 48 kHz / 640 kbps
Language : English
Service kind : Complete Main
Default : No
Forced : No

Audio #3
ID : 4
Format : AC-3
Format/Info : Audio Coding 3
Commercial name : Dolby Digital
Codec ID : A_AC3
Duration : 1 h 48 min
Bit rate mode : Constant
Bit rate : 192 kb/s
Channel(s) : 2 channels
Channel layout : L R
Sampling rate : 48.0 kHz
Frame rate : 31.250 FPS (1536 SPF)
Compression mode : Lossy
Stream size : 150 MiB (0%)
Title : Commentary by Director Martin Campbell
Language : English
Service kind : Complete Main
Default : No
Forced : No

Text #1
ID : 5
Format : PGS
Codec ID : S_HDMV/PGS
Codec ID/Info : Picture based subtitle format used on BDs/HD-DVDs
Duration : 1 h 39 min
Bit rate : 29.1 kb/s
Count of elements : 1950
Stream size : 20.7 MiB (0%)
Title : SDH
Language : English
Default : No
Forced : No

Text #2
ID : 6
Format : PGS
Codec ID : S_HDMV/PGS
Codec ID/Info : Picture based subtitle format used on BDs/HD-DVDs
Duration : 1 h 40 min
Bit rate : 24.8 kb/s
Count of elements : 1542
Stream size : 17.8 MiB (0%)
Language : French
Default : No
Forced : No

Text #3
ID : 7
Format : PGS
Codec ID : S_HDMV/PGS
Codec ID/Info : Picture based subtitle format used on BDs/HD-DVDs
Duration : 1 h 46 min
Bit rate : 21.3 kb/s
Count of elements : 1484
Stream size : 16.2 MiB (0%)
Title : Latin American
Language : Spanish
Default : No
Forced : No

Menu
00:00:00.000 : en:Chapter 01
00:03:42.764 : en:Chapter 02
00:03:42.848 : en:Chapter 03
00:11:16.217 : en:Chapter 04
00:11:16.301 : en:Chapter 05
00:20:44.201 : en:Chapter 06
00:20:44.285 : en:Chapter 07
00:25:32.406 : en:Chapter 08
00:25:32.489 : en:Chapter 09
00:31:32.390 : en:Chapter 10
00:31:32.474 : en:Chapter 11
00:37:53.688 : en:Chapter 12
00:37:53.771 : en:Chapter 13
00:46:41.549 : en:Chapter 14
00:46:41.632 : en:Chapter 15
00:51:49.231 : en:Chapter 16
00:51:49.315 : en:Chapter 17
00:54:49.536 : en:Chapter 18
00:54:49.620 : en:Chapter 19
00:59:55.842 : en:Chapter 20
00:59:55.926 : en:Chapter 21
01:05:41.187 : en:Chapter 22
01:05:41.271 : en:Chapter 23
01:12:48.656 : en:Chapter 24
01:12:48.739 : en:Chapter 25
01:18:25.910 : en:Chapter 26
01:18:25.993 : en:Chapter 27
01:25:31.209 : en:Chapter 28
01:25:31.293 : en:Chapter 29
01:34:57.734 : en:Chapter 30
01:34:57.817 : en:Chapter 31

The.Protégé.2021.iTA-ENG.WEBDL.1080p.x264
https://ambassadorddl.site/the-protege-2021-movie/
Readme/Password

Password & My Message